<?xml version="1.0" standalone="no"?>
<!DOCTYPE svg PUBLIC "-//W3C//DTD SVG 1.1//EN" "http://www.w3.org/Graphics/SVG/1.1/DTD/svg11.dtd" >
<svg xmlns="http://www.w3.org/2000/svg">
<defs>
  <font id="smartdesign-icons" horiz-adv-x="1041.6666666666665">
    <font-face font-family="smartdesign-icons"
      units-per-em="1000" ascent="1000"
      descent="0" />
    <missing-glyph horiz-adv-x="0" />
    <glyph glyph-name="add"
      unicode="&#x61;&#x64;&#x64;"
      horiz-adv-x="1000" d="M531.25 791.6666666666667A31.25 31.25 0 0 1 468.75 791.6666666666667V531.25H208.3333333333333A31.25 31.25 0 0 1 208.3333333333333 468.75H468.75V208.3333333333334A31.25 31.25 0 0 1 531.25 208.3333333333334V468.75H791.6666666666666A31.25 31.25 0 0 1 791.6666666666666 531.25H531.25V791.6666666666667z" />
    <glyph glyph-name="angle_down"
      unicode="&#x61;&#x6E;&#x67;&#x6C;&#x65;&#x5F;&#x64;&#x6F;&#x77;&#x6E;"
      horiz-adv-x="1000" d="M257.2083333333333 563.4583333333334A31.25 31.25 0 0 0 301.375 607.625L500.2916666666667 408.7916666666668L699.1666666666666 607.6666666666667A31.25 31.25 0 0 0 743.3333333333333 563.4583333333334L522.3749999999999 342.5A31.25 31.25 0 0 0 478.2083333333333 342.5L257.2083333333333 563.4583333333334z" />
    <glyph glyph-name="angle_left"
      unicode="&#x61;&#x6E;&#x67;&#x6C;&#x65;&#x5F;&#x6C;&#x65;&#x66;&#x74;"
      horiz-adv-x="1000" d="M563.3333333333333 743.0833333333333A31.25 31.25 0 1 0 607.5 698.875L408.625 500L607.5 301.125A31.25 31.25 0 0 0 563.3333333333333 256.9583333333335L342.3333333333333 477.9166666666667A31.25 31.25 0 0 0 342.3333333333333 522.0833333333335L563.3333333333333 743.0833333333335z" />
    <glyph glyph-name="angle_right"
      unicode="&#x61;&#x6E;&#x67;&#x6C;&#x65;&#x5F;&#x72;&#x69;&#x67;&#x68;&#x74;"
      horiz-adv-x="1000" d="M436.6666666666667 743.0833333333333A31.25 31.25 0 1 1 392.5 698.875L591.375 500L392.5 301.125A31.25 31.25 0 0 1 436.6666666666667 256.9583333333335L657.6666666666666 477.9166666666667A31.25 31.25 0 0 1 657.6666666666666 522.0833333333335L436.6666666666667 743.0833333333333z" />
    <glyph glyph-name="angle_up"
      unicode="&#x61;&#x6E;&#x67;&#x6C;&#x65;&#x5F;&#x75;&#x70;"
      horiz-adv-x="1000" d="M257.2083333333333 436.6666666666668A31.25 31.25 0 0 1 301.375 392.5L500.2916666666667 591.375L699.1666666666666 392.5A31.25 31.25 0 0 1 743.3333333333333 436.6666666666668L522.3749999999999 657.6666666666667A31.25 31.25 0 0 1 478.2083333333333 657.6666666666667L257.1666666666667 436.6666666666668z" />
    <glyph glyph-name="angle_up_ranking"
      unicode="&#x61;&#x6E;&#x67;&#x6C;&#x65;&#x5F;&#x75;&#x70;&#x5F;&#x72;&#x61;&#x6E;&#x6B;&#x69;&#x6E;&#x67;"
      horiz-adv-x="1000" d="M257.2083333333333 561.6666666666667A31.25 31.25 0 1 1 301.375 517.5L500.2916666666667 716.375L699.1666666666666 517.5A31.25 31.25 0 0 1 743.3333333333333 561.6666666666667L522.3749999999999 782.6666666666667A31.25 31.25 0 0 1 478.2083333333333 782.6666666666667L257.1666666666667 561.6666666666667zM257.2083333333333 311.6666666666668A31.25 31.25 0 1 1 301.375 267.5000000000001L500.2916666666667 466.3750000000001L699.1666666666666 267.5000000000001A31.25 31.25 0 0 1 743.3333333333333 311.6666666666668L522.3749999999999 532.6666666666667A31.25 31.25 0 0 1 478.2083333333333 532.6666666666667L257.1666666666667 311.6666666666668z" />
    <glyph glyph-name="arrow_360_degree"
      unicode="&#x61;&#x72;&#x72;&#x6F;&#x77;&#x5F;&#x33;&#x36;&#x30;&#x5F;&#x64;&#x65;&#x67;&#x72;&#x65;&#x65;"
      horiz-adv-x="1041.6666666666665" d="M520.8333333333333 739.5833333333334C292.9166666666667 739.5833333333334 114.5833333333333 643.3333333333333 114.5833333333333 520.8333333333334S276.25 312.5 489.5833333333333 302.9166666666668L437.5 250A31.25 31.25 0 0 1 437.5 208.3333333333334A31.25 31.25 0 0 1 479.1666666666666 208.3333333333334L583.3333333333333 312.5A32.4583333333333 32.4583333333333 0 0 1 592.5 334.5833333333334A32.4583333333333 32.4583333333333 0 0 1 583.3333333333333 356.6666666666667L479.1666666666666 458.3333333333334A31.25 31.25 0 0 1 437.5 416.6666666666668L487.4999999999999 366.6666666666668C302.5 375 177.0833333333333 451.25 177.0833333333333 520.8333333333334C177.0833333333333 590.4166666666667 318.3333333333333 677.0833333333334 520.8333333333333 677.0833333333334C723.3333333333333 677.0833333333334 864.5833333333333 593.75 864.5833333333333 520.8333333333334C864.5833333333333 472.9166666666666 808.75 424.5833333333334 719.1666666666665 395.8333333333334A31.6666666666667 31.6666666666667 0 0 1 697.9166666666665 366.25A28 28 0 0 1 697.9166666666665 356.25A31.25 31.25 0 0 1 737.4999999999998 336.6666666666667C854.9999999999998 375.8333333333333 925.4166666666664 445.4166666666667 925.4166666666664 522.0833333333333C927.083333333333 643.3333333333333 748.7499999999997 739.5833333333333 520.833333333333 739.5833333333333z" />
    <glyph glyph-name="auction"
      unicode="&#x61;&#x75;&#x63;&#x74;&#x69;&#x6F;&#x6E;"
      horiz-adv-x="1000" d="M479.4583333333333 866.2916666666666A107.0833333333333 107.0833333333333 0 0 0 487.3749999999999 875.125L492.9583333333333 880.2916666666667A106.8333333333333 106.8333333333333 0 0 0 638.4583333333333 874.7083333333334L708.1666666666667 804.5833333333334A107.7083333333333 107.7083333333333 0 0 0 699.0000000000001 644.5833333333334L648.2083333333335 604.0416666666667L866.0833333333335 419.6666666666667A114 114 0 0 0 718.4166666666669 245.9166666666668L713.0416666666667 250.7916666666668L707.9583333333334 256.0833333333334L514.3750000000001 469.25L479.0416666666667 425.375A106.8333333333333 106.8333333333333 0 0 0 320.0416666666668 416.9583333333334L250.1666666666667 487.0833333333334A107.7083333333333 107.7083333333333 0 0 0 259.3333333333333 647.0833333333333L351 720.25C371.0833333333333 736.2083333333333 389.2916666666667 754.375 405.375 774.375L479.4583333333333 866.25zM554.0416666666666 518.5416666666667L754.1666666666666 298.1250000000001A51.5 51.5 0 1 1 829.7083333333333 368.1250000000001L825.6666666666666 372.0000000000001L598.5833333333333 564.1666666666667A350.7916666666667 350.7916666666667 0 0 1 554.0416666666666 518.5416666666667zM663.8333333333333 760.5416666666667L594.1666666666666 830.625A44.3333333333333 44.3333333333333 0 0 1 528.1666666666666 827.125L454.0833333333333 735.2083333333333A411.8333333333333 411.8333333333333 0 0 0 390.0416666666667 671.4583333333333L298.3333333333333 598.3333333333333A45.2083333333333 45.2083333333333 0 0 1 294.5 531.2083333333333L364.3333333333333 461A44.3333333333333 44.3333333333333 0 0 1 430.3333333333333 464.5416666666666L504.3333333333333 556.4166666666667A413.5833333333333 413.5833333333333 0 0 0 568.3333333333333 620.2916666666666L660 693.375A45.2083333333333 45.2083333333333 0 0 1 667.0833333333334 756.9166666666666L663.8333333333334 760.5416666666666zM426.9583333333333 281.25A114.5833333333333 114.5833333333333 0 0 0 533.125 210.125L535.8333333333333 202.8333333333334L558.375 134.8333333333333A31.25 31.25 0 0 0 500.6666666666666 111.25L499.0416666666666 115.1666666666668L476.5416666666667 183.125A52.0833333333333 52.0833333333333 0 0 1 432.5833333333334 218.4583333333334L427 218.75H264.1666666666667A52.0833333333333 52.0833333333333 0 0 1 216.875 188.2500000000001L214.8333333333333 183.0833333333335L192.125 115.0833333333334A31.25 31.25 0 0 0 131.7916666666667 130.7916666666668L132.875 134.9166666666668L155.5833333333333 202.875A114.5833333333333 114.5833333333333 0 0 0 256.3333333333333 280.9583333333333L264.0833333333333 281.25H427z" />
    <glyph glyph-name="average"
      unicode="&#x61;&#x76;&#x65;&#x72;&#x61;&#x67;&#x65;"
      horiz-adv-x="1000" d="M144.5833333333334 191.2916666666668A31.25 31.25 0 1 1 188.75 147.1250000000001L286.0416666666667 244.3750000000001A333.3333333333333 333.3333333333333 0 0 1 755.6249999999999 713.9583333333335L851.6666666666666 810A31.25 31.25 0 0 1 807.5000000000001 854.2083333333334L711.2083333333333 757.9166666666667A333.3333333333333 333.3333333333333 0 0 1 242.0833333333333 288.8333333333334L144.5416666666666 191.3333333333334zM330.4166666666667 288.7916666666668L711.25 669.5416666666667A270.8333333333333 270.8333333333333 0 0 0 330.5 288.7916666666668zM666.7083333333331 713.4583333333334L286.5416666666665 333.2916666666669A270.8333333333333 270.8333333333333 0 0 0 666.7083333333331 713.4583333333335z" />
    <glyph glyph-name="backward"
      unicode="&#x62;&#x61;&#x63;&#x6B;&#x77;&#x61;&#x72;&#x64;"
      horiz-adv-x="1000" d="M397.0833333333333 834.5833333333334A31.25 31.25 0 0 0 397.0833333333333 790.4166666666666L325.4166666666667 718.75H500A281.25 281.25 0 1 0 500 156.25A281.25 281.25 0 0 0 218.75 437.5A31.25 31.25 0 0 0 281.25 437.5A218.75 218.75 0 1 1 500 656.25H325.4166666666667L397.0833333333333 584.5833333333333A31.25 31.25 0 1 0 352.9166666666666 540.4166666666666L227.9166666666666 665.4166666666666A31.1666666666667 31.1666666666667 0 0 0 227.9166666666666 709.5833333333333L352.9166666666666 834.5833333333333A31.25 31.25 0 0 0 397.0833333333333 834.5833333333333z" />
    <glyph glyph-name="bakery"
      unicode="&#x62;&#x61;&#x6B;&#x65;&#x72;&#x79;"
      horiz-adv-x="1000" d="M890.8333333333333 410.8333333333334A103.3333333333333 103.3333333333333 0 0 1 785.4166666666666 458.3333333333334A272.0833333333333 272.0833333333333 0 0 0 702.0833333333334 458.3333333333334A109.1666666666667 109.1666666666667 0 0 1 636.25 491.6666666666667H622.5A111.25 111.25 0 0 1 597.0833333333334 533.3333333333334L530.8333333333334 600A113.75 113.75 0 0 1 489.1666666666667 625V628.75A106.6666666666667 106.6666666666667 0 0 1 458.3333333333333 683.75A270.8333333333333 270.8333333333333 0 0 0 458.3333333333333 785.8333333333334A102.5 102.5 0 0 1 411.25 890.4166666666666A97.5 97.5 0 0 1 301.25 887.5C280.1666666666667 872.0416666666667 260.4166666666667 854.9166666666667 242.0833333333334 836.25A407.0833333333333 407.0833333333333 0 0 1 193.75 774.1666666666667A69.5833333333333 69.5833333333333 0 0 1 140.8333333333334 728.75A460.4166666666667 460.4166666666667 0 0 1 120.8333333333334 492.5000000000001A103.3333333333333 103.3333333333333 0 0 1 102.9166666666667 464.5833333333334A108.75 108.75 0 0 1 102.9166666666667 379.1666666666668A503.75 503.75 0 0 1 380.4166666666667 101.6666666666667C393.625 96.2083333333335 407.7916666666667 93.375 422.0833333333333 93.3333333333335A107.9166666666667 107.9166666666667 0 0 1 493.3333333333333 120.0000000000001C519.75 115.2083333333336 546.5 112.7083333333335 573.3333333333333 112.5000000000001A455.8333333333333 455.8333333333333 0 0 1 748.7499999999999 147.5000000000001A70.4166666666667 70.4166666666667 0 0 1 790.4166666666666 205.0000000000001A410.75 410.75 0 0 1 840.4166666666665 246.6666666666668C858.0416666666665 263.9583333333334 873.9583333333331 282.9166666666669 887.9166666666665 303.3333333333334A95.4166666666667 95.4166666666667 0 0 1 890.8333333333333 410.8333333333334zM337.5 836.6666666666667A35 35 0 0 0 379.1666666666667 836.6666666666667A41.6666666666667 41.6666666666667 0 0 0 396.6666666666667 795A362.4999999999999 362.4999999999999 0 0 1 392.0833333333333 715.8333333333333L260.4166666666667 761.6666666666666A360.8333333333333 360.8333333333333 0 0 0 337.5 836.6666666666666zM199.5833333333333 708.3333333333334A8.3333333333333 8.3333333333333 0 0 0 208.3333333333333 712.9166666666667L397.0833333333334 649.5833333333334C401.25 648 405.125 645.9166666666667 408.75 643.3333333333333C415.4166666666667 638.6666666666667 420.7083333333334 632.3333333333334 424.1666666666667 625L411.6666666666667 620.8333333333334L178.3333333333333 529.5833333333334A397.9166666666667 397.9166666666667 0 0 0 199.5833333333333 708.3333333333334zM402.9166666666667 159.5833333333333A440.8333333333333 440.8333333333333 0 0 0 160 402.9166666666667A47.9166666666667 47.9166666666667 0 0 0 160 440C165.1666666666667 451.6666666666666 174.75 460.7916666666666 186.6666666666666 465.4166666666666L434.5833333333333 562.5C440.125 564.8333333333333 446.0833333333333 566 452.0833333333333 565.8333333333333A46.2083333333333 46.2083333333333 0 0 0 485.4166666666666 552.0833333333333L552.0833333333333 485.4166666666666C558.5833333333334 478.9166666666666 563.0833333333333 470.6666666666666 565 461.6666666666666C566.6666666666666 452.8333333333333 565.7916666666666 443.75 562.5 435.4166666666667L465.4166666666666 185.4166666666665A47.9166666666667 47.9166666666667 0 0 0 402.9166666666667 158.7499999999999V159.5833333333332zM724.1666666666666 205A395 395 0 0 0 529.5833333333333 178.3333333333333L620.8333333333333 412.0833333333333A147.5 147.5 0 0 1 625.4166666666665 426.6666666666665H628.7499999999999A46.25 46.25 0 0 0 670.4166666666665 394.9999999999999L730.8333333333331 216.25A8.75 8.75 0 0 0 724.1666666666664 205zM837.0833333333333 339.5833333333333A337.0833333333333 337.0833333333333 0 0 0 795.4166666666666 291.25C788.75 284.5833333333333 781.6666666666667 278.3333333333334 774.1666666666665 272.0833333333333L734.5833333333333 389.5833333333333C754.7083333333333 389.4999999999999 774.7916666666666 391.3333333333333 794.5833333333333 395A39.1666666666667 39.1666666666667 0 0 0 836.25 377.0833333333334A31.6666666666667 31.6666666666667 0 0 0 837.0833333333333 339.5833333333333z" />
    <glyph glyph-name="bank"
      unicode="&#x62;&#x61;&#x6E;&#x6B;"
      horiz-adv-x="1000" d="M875 552.0833333333334A31.6666666666667 31.6666666666667 0 0 1 906.25 583.3333333333334V714.1666666666667A31.6666666666667 31.6666666666667 0 0 1 887.5 742.9166666666667L518.75 903.75A32.5 32.5 0 0 1 493.7500000000001 903.75L112.5 737.0833333333333A31.25 31.25 0 0 1 93.75 708.3333333333334V583.3333333333334A31.6666666666667 31.6666666666667 0 0 1 125 552.0833333333334H177.0833333333334V281.25H166.6666666666667A31.6666666666667 31.6666666666667 0 0 1 138.75 264.1666666666668L97.0833333333333 180.8333333333334A33.75 33.75 0 0 1 93.75 166.6666666666668V125A31.6666666666667 31.6666666666667 0 0 1 125 93.75H875A31.6666666666667 31.6666666666667 0 0 1 906.25 125V166.6666666666668A33.75 33.75 0 0 1 902.9166666666669 180.8333333333334L861.25 264.1666666666668A31.6666666666667 31.6666666666667 0 0 1 833.3333333333333 281.25H822.9166666666666V552.0833333333334H875zM156.25 688.3333333333333L506.25 840.8333333333334L843.75 693.75V614.5833333333334H156.25V688.3333333333333zM421.25 281.25V552.0833333333334H578.7499999999999V281.25H421.25zM239.5833333333333 552.0833333333334H358.75V281.25H239.5833333333333V552.0833333333334zM843.75 159.1666666666668V156.25H156.25L185.8333333333333 218.75H814.1666666666666L843.75 159.1666666666668zM760.4166666666666 281.25H641.25V552.0833333333334H760.4166666666666V281.25z" />
    <glyph glyph-name="bar"
      unicode="&#x62;&#x61;&#x72;"
      horiz-adv-x="1000" d="M458.3333333333333 583.3333333333334A41.6666666666667 41.6666666666667 0 1 1 458.3333333333333 666.6666666666667A41.6666666666667 41.6666666666667 0 0 1 458.3333333333333 583.3333333333334zM730.4166666666666 917.9166666666666A31.25 31.25 0 0 0 730.4166666666666 873.75L658.75 802.0833333333334H833.3333333333333A31.25 31.25 0 0 0 856.6666666666665 750.0833333333334L531.25 383.9583333333334V135.4166666666668H666.6666666666666A31.25 31.25 0 0 0 666.6666666666666 72.9166666666667H333.3333333333333A31.25 31.25 0 0 0 333.3333333333333 135.4166666666668H468.75V383.9583333333334L143.3333333333333 750.0833333333334A31.25 31.25 0 0 0 166.6666666666667 802.0833333333334H570.4166666666666L686.2499999999999 917.9166666666666A31.25 31.25 0 0 0 730.4166666666665 917.9166666666666zM763.75 739.5833333333334H236.25L500 442.875L763.7499999999999 739.5833333333334z" />
    <glyph glyph-name="basketball"
      unicode="&#x62;&#x61;&#x73;&#x6B;&#x65;&#x74;&#x62;&#x61;&#x6C;&#x6C;"
      horiz-adv-x="1000" d="M93.75 500V500.4166666666667A405 405 0 0 0 212.75 787.25C371.375 945.9166666666666 628.5833333333333 945.9166666666666 787.2499999999999 787.25C945.9166666666666 628.625 945.9166666666666 371.4166666666668 787.2499999999999 212.7500000000001A405 405 0 0 0 500.2499999999999 93.75H499.7499999999999A405 405 0 0 0 212.7499999999999 212.7500000000001A405 405 0 0 0 93.75 499.5833333333334V500zM280 764.1666666666667L389.1666666666667 655A342.2083333333333 342.2083333333333 0 0 1 467.2083333333333 842.2083333333333A342.1666666666667 342.1666666666667 0 0 1 280 764.1666666666667zM157.7916666666667 532.7916666666666A342.2083333333333 342.2083333333333 0 0 1 345 610.8333333333334L235.8333333333333 720A342.1666666666667 342.1666666666667 0 0 1 157.8333333333334 532.7916666666666zM720 235.8333333333334L610.8333333333333 345.0000000000001A342.2083333333333 342.2083333333333 0 0 1 532.8333333333333 157.7916666666666A342.2083333333333 342.2083333333333 0 0 1 720 235.8333333333334zM842.25 467.2083333333334C771.375 460.5000000000001 706.7916666666666 432.2916666666668 655.0416666666667 389.1666666666668L764.2083333333334 280.0000000000001A342.1666666666667 342.1666666666667 0 0 1 842.25 467.2083333333335zM764.1666666666666 719.9583333333334L544.1666666666666 500L610.6666666666666 433.5416666666667A404.5416666666666 404.5416666666666 0 0 0 842.4583333333334 530A342.2083333333333 342.2083333333333 0 0 1 764.1666666666666 720zM720 764.1666666666667A342.2083333333333 342.2083333333333 0 0 1 530.0000000000001 842.4583333333334A404.5 404.5 0 0 0 433.5000000000001 610.6666666666667L500 544.1666666666667L720 764.1666666666667zM455.8333333333333 500L389.3333333333333 566.4583333333334A404.5 404.5 0 0 0 157.5416666666667 470.0416666666667A342.25 342.25 0 0 1 235.8333333333333 280.0416666666668L455.8333333333333 500zM500 455.8333333333334L280 235.8333333333334A342.25 342.25 0 0 1 469.9999999999999 157.5416666666666A404.5 404.5 0 0 0 566.5 389.3333333333333L500 455.7916666666667z" />
    <glyph glyph-name="book_open"
      unicode="&#x62;&#x6F;&#x6F;&#x6B;&#x5F;&#x6F;&#x70;&#x65;&#x6E;"
      horiz-adv-x="1000" d="M691.4583333333333 927.0833333333334L702.6249999999999 926.875C710.1249999999999 926.6666666666669 717.8333333333333 926.1666666666669 725.7916666666666 925.4583333333334C757.2916666666666 922.5416666666666 782.4583333333333 899.5833333333334 789.625 869.9583333333334A307.9166666666667 307.9166666666667 0 0 0 875.5 830.0833333333334C893.3749999999999 818.0416666666667 904.1666666666666 798.2083333333334 905.9583333333334 776.875L906.2500000000002 770.4166666666666V240.0416666666667C906.2500000000002 187.375 852.0416666666669 152.0416666666668 804.0000000000001 173.6666666666666C712 215 595.2500000000001 202.7916666666668 520.1250000000001 142.7916666666668A31.125 31.125 0 0 0 479.8333333333334 142.7916666666668C404.7500000000002 202.7916666666668 288.0000000000001 215 196.0833333333335 173.7083333333334A72.5416666666667 72.5416666666667 0 0 0 94.0000000000002 234.25L93.7500000000002 240.0000000000001V770.25C93.7500000000002 794.1666666666666 105.0000000000002 816.9166666666667 124.7083333333335 830.25C230.5416666666669 901.75 381.7083333333336 903.4166666666669 489.5833333333334 837.1666666666667L500.0416666666667 830.375L502.6666666666668 832.1666666666667A315.4166666666667 315.4166666666667 0 0 0 585.5833333333335 869.875A73.125 73.125 0 0 0 647.7500000000001 924.3333333333334C662.7500000000001 926.125 677.2916666666667 927.0416666666669 691.4583333333334 927.0833333333334zM531.25 223.8333333333334C617.4583333333333 267.8333333333334 726.25 272.7083333333335 818.2083333333333 235.5416666666667L829.625 230.6666666666667A10 10 0 0 1 843.3749999999999 237.375L843.75 240.0416666666667V770.4583333333334C843.75 774.125 842.2916666666666 777.125 840.5 778.3333333333334A234.8333333333333 234.8333333333333 0 0 1 791.6666666666666 803.3333333333334V638.875A31.25 31.25 0 0 0 743.0833333333333 612.875L687.5 649.9583333333334L631.9166666666666 612.875A31.25 31.25 0 0 0 583.5833333333333 634.5416666666666L583.3333333333333 638.9166666666667V803.2083333333334C564.3333333333334 796 546.875 786.9583333333334 531.25 776.0416666666667V223.8333333333334zM468.75 776.0833333333333C381.5416666666667 837.3333333333333 249.1666666666667 838.9166666666666 159.6666666666667 778.4166666666666A8.75 8.75 0 0 1 156.5 772.9583333333333L156.25 770.25V240.0000000000001C156.25 232.5833333333334 163.75 227.7083333333334 170.4166666666667 230.6666666666668C264.625 273.0416666666668 378.9583333333333 269.6666666666668 468.75 223.8333333333334V776.0833333333334zM729.1666666666666 844.625V852.7083333333333A10.625 10.625 0 0 1 722.5 862.6666666666666L720.0833333333333 863.2083333333333A298.8333333333333 298.8333333333333 0 0 1 655.125 862.25A10.625 10.625 0 0 1 645.8333333333333 851.7083333333333V697.2916666666667L670.1666666666666 713.5A31.25 31.25 0 0 0 700.7499999999999 715.7916666666666L704.8333333333331 713.5L729.1666666666665 697.2916666666667V844.625z" />
    <glyph glyph-name="bus"
      unicode="&#x62;&#x75;&#x73;"
      horiz-adv-x="1000" d="M270.7083333333333 843.875H729.2500000000001C758.0416666666666 843.875 781.3333333333334 820.5416666666666 781.3333333333334 791.7916666666667V739.6666666666667H218.6666666666667V791.75C218.6666666666667 820.5833333333334 242 843.875 270.75 843.875zM843.875 739.6666666666667V791.75A114.5833333333333 114.5833333333333 0 0 1 729.2916666666666 906.375H270.6666666666667A114.5833333333333 114.5833333333333 0 0 1 156.0833333333334 791.7916666666667V739.6666666666667H124.7916666666667A72.9166666666667 72.9166666666667 0 0 1 51.875 666.75V541.6666666666667A31.25 31.25 0 0 1 114.375 541.6666666666667V666.75A10.4166666666667 10.4166666666667 0 0 0 124.7916666666667 677.1666666666667H156.0416666666667V291.5833333333334C156.0416666666667 261.4166666666668 167.7083333333334 233.9583333333335 186.75 213.5000000000001V145.6666666666669C186.75 105.4166666666667 219.4166666666667 72.7500000000001 259.6666666666667 72.7500000000001H301.3333333333333A72.9166666666667 72.9166666666667 0 0 1 374.2916666666667 145.6666666666669V176.9166666666669H625.5833333333333V145.6666666666669C625.5833333333333 105.4166666666667 658.25 72.7500000000001 698.4999999999999 72.7500000000001H740.2083333333334A72.9166666666667 72.9166666666667 0 0 1 813.125 145.6666666666669V213.5000000000001C832.2083333333333 233.9583333333335 843.8333333333333 261.4166666666668 843.8333333333333 291.5833333333334V677.1666666666667H875.0833333333333A10.4166666666667 10.4166666666667 0 0 0 885.4999999999999 666.75V541.6666666666667A31.25 31.25 0 0 1 947.9999999999998 541.6666666666667V666.75A72.9166666666667 72.9166666666667 0 0 1 875.0833333333333 739.6666666666667H843.8333333333333zM781.375 677.1666666666667V489.5416666666667H218.625V677.1666666666667H781.375zM781.375 427.0416666666668V291.5833333333334C781.375 276.3333333333335 774.8333333333333 262.6250000000001 764.4583333333334 253.1250000000001A31.125 31.125 0 0 1 760 249.5000000000003C751.4166666666667 243.1666666666668 740.75 239.4583333333335 729.2500000000001 239.4583333333335H270.7083333333333C259.2083333333333 239.4583333333335 248.625 243.2083333333335 239.9583333333334 249.4583333333335A31.3333333333333 31.3333333333333 0 0 1 235.5416666666667 253.1250000000001A51.9583333333333 51.9583333333333 0 0 0 218.625 291.5833333333336V427.0416666666669H781.375zM750.7083333333333 178.9583333333335V145.6666666666669A10.4166666666667 10.4166666666667 0 0 0 740.2916666666666 135.2500000000001H698.5833333333333A10.4166666666667 10.4166666666667 0 0 0 688.1666666666665 145.6666666666669V176.9166666666669H729.2499999999999C736.5833333333331 176.9166666666669 743.7499999999999 177.6250000000001 750.7083333333333 178.9583333333335zM311.8333333333333 176.9583333333335V145.7083333333335A10.4166666666667 10.4166666666667 0 0 0 301.4166666666667 135.2500000000001H259.75A10.4166666666667 10.4166666666667 0 0 0 249.2916666666667 145.6666666666669V178.9583333333335C256.25 177.6250000000001 263.4166666666667 176.9583333333335 270.7083333333333 176.9583333333335H311.8333333333333zM281.1666666666667 333.2083333333335A31.25 31.25 0 0 0 312.4166666666667 364.4583333333335H354.0833333333334A31.25 31.25 0 1 0 354.0833333333334 301.9583333333335H312.4166666666667A31.25 31.25 0 0 0 281.1666666666667 333.2083333333335zM614.625 333.2083333333335A31.25 31.25 0 0 0 645.875 364.4583333333335H687.5416666666666A31.25 31.25 0 1 0 687.5416666666666 301.9583333333335H645.875A31.25 31.25 0 0 0 614.625 333.2083333333335z" />
    <glyph glyph-name="business_card"
      unicode="&#x62;&#x75;&#x73;&#x69;&#x6E;&#x65;&#x73;&#x73;&#x5F;&#x63;&#x61;&#x72;&#x64;"
      horiz-adv-x="1000" d="M822.9166666666666 666.6666666666667A31.25 31.25 0 0 1 791.6666666666666 697.9166666666667H666.6666666666666L662.4166666666666 697.625A31.25 31.25 0 0 1 666.6666666666666 635.4166666666667H791.6666666666666L795.9166666666666 635.7083333333333A31.25 31.25 0 0 1 822.9166666666666 666.6666666666667zM822.9166666666666 541.6666666666667A31.25 31.25 0 0 1 791.6666666666666 572.9166666666667H750L745.75 572.625A31.25 31.25 0 0 1 750 510.4166666666667H791.6666666666666L795.9166666666666 510.7083333333334A31.25 31.25 0 0 1 822.9166666666666 541.6666666666667zM520.4166666666666 823.3333333333334H811.4166666666666L819.1249999999999 823.1666666666667A134.8333333333334 134.8333333333334 0 0 0 946.8749999999998 696L947.0833333333331 688.3333333333334V521.6666666666667A135.4583333333333 135.4583333333333 0 0 0 819.3333333333331 386.4583333333333L811.6666666666665 386.2499999999999H598.4166666666665L513.9583333333331 259.4166666666667A199.6666666666666 199.6666666666666 0 0 0 426.9999999999999 186.7916666666668L421.3749999999999 184.4583333333334L417.3333333333333 182.7083333333333L177.3333333333333 95.625A31.25 31.25 0 0 0 152.1249999999999 152.6666666666666L155.9999999999999 154.375L393.5 240.5833333333333L395.2916666666666 241.3333333333333A138.25 138.25 0 0 1 456.3749999999999 286.2083333333334L461.9166666666666 294.0000000000001L584.9999999999999 478.9166666666667L586.3333333333333 481.2083333333334A38.125 38.125 0 0 1 585.0833333333333 524.7916666666666L581.2499999999999 529.1666666666667A37.375 37.375 0 0 1 532.0833333333333 532.8333333333333L528.2499999999999 529.5L446.25 448.2083333333333A31.25 31.25 0 0 0 404.3749999999999 429.5833333333333H331.25A31.25 31.25 0 0 0 327 491.7916666666666L331.25 492.0833333333333H385.4166666666667V636.6666666666667H320.4166666666667C308.7083333333334 636.6666666666667 297.2083333333333 634.4583333333333 286.625 630.25L281.6666666666667 628.0416666666666L278.9583333333333 626.375L254.1666666666667 613.5833333333333C240.7083333333333 606.9583333333333 228.9583333333334 596.9166666666666 220.2083333333333 584.5833333333333L218 581.25L216.4166666666667 578.0833333333333L110.1666666666667 400.5833333333334A31.25 31.25 0 0 0 54.5833333333333 428.9166666666667L56.5416666666667 432.6666666666667L160.375 606.3333333333333L162.2916666666667 610.0833333333333A153.9166666666667 153.9166666666667 0 0 0 217.5 664.7916666666667L226.0833333333333 669.375L246.2916666666667 679.8333333333334L246.625 680.0833333333334L250.375 682.3333333333335C268.7916666666667 691.7916666666667 289.125 697.3333333333335 309.9583333333333 698.75L320.4166666666667 699.0833333333335H385.8333333333333A134.9166666666667 134.9166666666667 0 0 0 512.7083333333333 823.0833333333334L520.4166666666666 823.2916666666667zM811.6666666666666 448.75C849.9166666666666 448.75 881.2916666666666 478.2083333333334 884.3333333333333 515.6666666666667L884.5833333333333 521.6666666666667V688.3333333333333C884.5833333333333 726.5416666666666 855.1249999999999 757.8333333333334 817.8333333333333 760.625L811.8749999999999 760.8333333333334H520.4166666666666C482.1249999999999 760.8333333333334 450.9166666666667 731.3333333333333 448.125 693.5416666666667L447.9166666666667 687.5V537.875L484.1666666666666 573.75A99.7083333333333 99.7083333333333 0 0 0 619.9583333333333 578.4583333333333L625.8333333333333 572.9166666666667C657.4166666666666 541.375 663.9583333333333 492.7083333333333 642.7083333333333 453.8750000000001L640.9166666666666 450.8750000000001L639.7499999999999 448.7500000000001H811.6666666666666z" />
    <glyph glyph-name="butcher"
      unicode="&#x62;&#x75;&#x74;&#x63;&#x68;&#x65;&#x72;"
      horiz-adv-x="1041.6666666666665" d="M850.8333333333334 538.75A541.6666666666666 541.6666666666666 0 0 1 600.8333333333334 685.8333333333333A280 280 0 0 1 464.5833333333334 685.8333333333333L407.9166666666667 745.4166666666666V802.0833333333334A104.5416666666667 104.5416666666667 0 1 1 199.5833333333333 819.5833333333334A104.5416666666667 104.5416666666667 0 0 1 217.0833333333333 611.25H275.4166666666667L333.3333333333333 555C304.1666666666667 445 358.3333333333333 293.7500000000001 482.0833333333333 170A260.8333333333333 260.8333333333333 0 0 1 850.8333333333334 538.75zM312.5 666.6666666666667A31.25 31.25 0 0 1 290.4166666666667 675.8333333333333H218.75A41.6666666666667 41.6666666666667 0 0 0 218.75 759.1666666666666H231.25A31.6666666666667 31.6666666666667 0 0 1 262.5 790.4166666666666V802.9166666666666A41.6666666666667 41.6666666666667 0 0 0 345.8333333333334 802.9166666666666V732.5A31.25 31.25 0 0 1 354.1666666666667 708.3333333333334L405 660A166.6666666666667 166.6666666666667 0 0 1 360.8333333333333 615.8333333333333L312.5 666.6666666666667zM806.6666666666666 214.1666666666668A198.75 198.75 0 0 0 526.2499999999999 214.1666666666668C395.8333333333333 345 349.1666666666667 520 425 595.8333333333334A114.1666666666667 114.1666666666667 0 0 0 466.6666666666666 622.9166666666667A176.25 176.25 0 0 0 523.75 632.0833333333335A250 250 0 0 0 587.5 625A480.8333333333333 480.8333333333333 0 0 0 806.6666666666666 494.5833333333334A198.75 198.75 0 0 0 806.6666666666666 214.1666666666668z" />
    <glyph glyph-name="cafe"
      unicode="&#x63;&#x61;&#x66;&#x65;"
      horiz-adv-x="1000" d="M540.7083333333334 918.25A31.25 31.25 0 0 0 584.9166666666666 917.5833333333334A106.5 106.5 0 0 0 584.9166666666666 769.9166666666666A44 44 0 0 1 584.9166666666666 709.25A31.25 31.25 0 0 0 540.0833333333333 665.75A106.5 106.5 0 0 0 540.0833333333333 813.4166666666667A44 44 0 0 1 540.0833333333333 874.0833333333334A31.25 31.25 0 0 0 540.7083333333334 918.25zM93.75 520.8333333333334C93.75 561 126.5 593.75 166.6666666666667 593.75H641.2083333333333C642.8749999999999 594 644.5416666666666 594.1666666666667 646.25 594.1666666666667H754.5833333333333A152.1666666666667 152.1666666666667 0 0 0 906.6666666666666 442.0833333333334A193.9166666666667 193.9166666666667 0 0 0 756.2499999999999 253.3333333333333L756.0833333333331 253.25L691.4999999999998 238.5833333333334A281.125 281.125 0 0 0 458.3333333333333 114.5833333333334H375A281.4583333333333 281.4583333333333 0 0 0 93.75 395.8333333333334V520.8333333333334zM166.6666666666667 531.25A10.5416666666667 10.5416666666667 0 0 1 156.25 520.8333333333334V395.8333333333334A218.9583333333333 218.9583333333333 0 0 1 375 177.0833333333334H458.3333333333333A218.9583333333333 218.9583333333333 0 0 1 677.0833333333333 395.8333333333334V520.8333333333334A10.5416666666667 10.5416666666667 0 0 1 666.6666666666666 531.25H166.6666666666667zM726.4166666666665 310.625L742.1249999999998 314.1666666666667H742.1666666666665A131.4166666666667 131.4166666666667 0 0 1 844.1666666666665 442.0833333333334C844.1666666666665 491.5 803.9999999999999 531.6666666666667 754.5833333333333 531.6666666666667H738.75C739.2916666666667 528.125 739.5833333333333 524.5 739.5833333333333 520.8333333333334V395.8333333333334C739.5833333333333 366.1250000000001 735 337.5 726.4166666666666 310.625zM439.0833333333333 917.5833333333334A31.25 31.25 0 0 1 394.25 874.0833333333334A44 44 0 0 0 394.25 813.4166666666667A106.5 106.5 0 0 1 394.25 665.75A31.25 31.25 0 0 1 439.0833333333333 709.25A44 44 0 0 0 439.0833333333333 769.9166666666666A106.5 106.5 0 0 1 439.0833333333333 917.5833333333334zM249.0833333333333 918.25A31.25 31.25 0 0 0 293.25 917.5833333333334A106.5 106.5 0 0 0 293.25 769.9166666666666A44 44 0 0 1 293.25 709.25A31.25 31.25 0 0 0 248.4166666666667 665.75A106.5 106.5 0 0 0 248.4166666666667 813.4166666666667A44 44 0 0 1 248.4166666666667 874.0833333333334A31.25 31.25 0 0 0 249.0833333333333 918.25z" />
    <glyph glyph-name="calculator"
      unicode="&#x63;&#x61;&#x6C;&#x63;&#x75;&#x6C;&#x61;&#x74;&#x6F;&#x72;"
      horiz-adv-x="1000" d="M281.25 708.3333333333334A31.25 31.25 0 0 0 312.5 739.5833333333334H687.5A31.25 31.25 0 0 0 687.5 677.0833333333334H312.5A31.25 31.25 0 0 0 281.25 708.3333333333334zM312.5 552.0833333333334A31.25 31.25 0 0 1 312.5 489.5833333333334H354.1666666666667A31.25 31.25 0 0 1 354.1666666666667 552.0833333333334H312.5zM479.1666666666666 552.0833333333334A31.25 31.25 0 0 1 479.1666666666666 489.5833333333334H520.8333333333333A31.25 31.25 0 0 1 520.8333333333333 552.0833333333334H479.1666666666666zM281.25 395.8333333333334A31.25 31.25 0 0 0 312.5 427.0833333333334H354.1666666666667A31.25 31.25 0 0 0 354.1666666666667 364.5833333333334H312.5A31.25 31.25 0 0 0 281.25 395.8333333333334zM479.1666666666666 427.0833333333334A31.25 31.25 0 0 1 479.1666666666666 364.5833333333334H520.8333333333333A31.25 31.25 0 0 1 520.8333333333333 427.0833333333334H479.1666666666666zM281.25 270.8333333333334A31.25 31.25 0 0 0 312.5 302.0833333333334H354.1666666666667A31.25 31.25 0 0 0 354.1666666666667 239.5833333333334H312.5A31.25 31.25 0 0 0 281.25 270.8333333333334zM479.1666666666666 302.0833333333334A31.25 31.25 0 0 1 479.1666666666666 239.5833333333334H520.8333333333333A31.25 31.25 0 0 1 520.8333333333333 302.0833333333334H479.1666666666666zM614.5833333333333 270.8333333333334A31.25 31.25 0 0 0 645.8333333333333 302.0833333333334H687.5A31.25 31.25 0 0 0 687.5 239.5833333333334H645.8333333333333A31.25 31.25 0 0 0 614.5833333333333 270.8333333333334zM645.8333333333333 427.0833333333334A31.25 31.25 0 0 1 645.8333333333333 364.5833333333334H687.5A31.25 31.25 0 0 1 687.5 427.0833333333334H645.8333333333333zM645.8333333333333 552.0833333333334A31.25 31.25 0 0 1 645.8333333333333 489.5833333333334H687.5A31.25 31.25 0 0 1 687.5 552.0833333333334H645.8333333333333zM270.8333333333333 93.75H729.1666666666666C763.4583333333333 93.75 789.9166666666665 107.1666666666666 810.8333333333334 129.3750000000001C831.7916666666666 151.5416666666668 843.75 178.6666666666668 843.75 213.2500000000001V786.75C843.75 817.9166666666667 832.0833333333333 848.0833333333333 810.8333333333334 870.625A112.2916666666666 112.2916666666666 0 0 1 729.1666666666666 906.25H270.8333333333333C239.8333333333334 906.25 210.5416666666667 893.2083333333333 189.1666666666667 870.625C167.9166666666667 848.125 156.25 817.9166666666667 156.25 786.75V213.2500000000001C156.25 182.1250000000001 167.9166666666667 151.9166666666668 189.1666666666667 129.3750000000002A112.2916666666666 112.2916666666666 0 0 1 270.8333333333333 93.7500000000002zM234.625 827.7083333333334C244.5416666666667 838.2083333333334 257.625 843.75 270.8333333333333 843.75H729.1666666666666C742.375 843.75 755.4166666666666 838.2083333333334 765.375 827.7083333333334C775.3749999999999 817.125 781.25 802.4166666666667 781.25 786.75V213.2500000000001C781.25 195.0833333333335 775.7499999999999 183.2500000000002 765.4166666666666 172.3333333333335L765.3333333333334 172.2500000000002C755.0833333333335 161.3333333333335 744.6666666666667 156.2500000000002 729.1666666666667 156.2500000000002H270.8333333333335C257.6250000000001 156.2500000000002 244.5833333333335 161.7916666666669 234.6250000000002 172.291666666667A59.7083333333333 59.7083333333333 0 0 0 218.7500000000002 213.2500000000002V786.75C218.7500000000002 802.4166666666667 224.6666666666668 817.1666666666667 234.6250000000002 827.7083333333333z" />
    <glyph glyph-name="calculator_price"
      unicode="&#x63;&#x61;&#x6C;&#x63;&#x75;&#x6C;&#x61;&#x74;&#x6F;&#x72;&#x5F;&#x70;&#x72;&#x69;&#x63;&#x65;"
      horiz-adv-x="1000" d="M197.9166666666667 843.75C184.7083333333333 843.75 171.6666666666667 838.2083333333334 161.7083333333334 827.7083333333334C151.7083333333333 817.125 145.8333333333333 802.4166666666667 145.8333333333333 786.75V213.2500000000001C145.8333333333333 197.5416666666669 151.75 182.8333333333335 161.7083333333334 172.2916666666668C171.625 161.7916666666669 184.7083333333333 156.25 197.9166666666667 156.25H489.5833333333333A31.25 31.25 0 0 0 489.5833333333333 93.75H197.9166666666667A112.2916666666666 112.2916666666666 0 0 0 116.25 129.3750000000001A122.1666666666667 122.1666666666667 0 0 0 83.3333333333333 213.25V786.75C83.3333333333333 817.9166666666667 95 848.0833333333333 116.25 870.625A112.2916666666666 112.2916666666666 0 0 0 197.9166666666667 906.25H656.25C687.25 906.25 716.5833333333333 893.2083333333333 737.9166666666666 870.625C759.1666666666667 848.125 770.8333333333333 817.9166666666667 770.8333333333333 786.75V647.0833333333333A31.25 31.25 0 0 0 708.3333333333333 647.0833333333333V786.75C708.3333333333333 802.4166666666667 702.4166666666666 817.1666666666667 692.4583333333333 827.7083333333333A49.8333333333333 49.8333333333333 0 0 1 656.25 843.75H197.9166666666667zM239.5833333333333 739.5833333333334A31.25 31.25 0 0 1 239.5833333333333 677.0833333333334H614.5833333333333A31.25 31.25 0 0 1 614.5833333333333 739.5833333333334H239.5833333333333zM208.3333333333333 520.8333333333334A31.25 31.25 0 0 0 239.5833333333333 552.0833333333334H281.25A31.25 31.25 0 0 0 281.25 489.5833333333334H239.5833333333333A31.25 31.25 0 0 0 208.3333333333333 520.8333333333334zM375 520.8333333333334A31.25 31.25 0 0 0 406.25 552.0833333333334H447.9166666666667A31.25 31.25 0 0 0 447.9166666666667 489.5833333333334H406.25A31.25 31.25 0 0 0 375 520.8333333333334zM239.5833333333333 427.0833333333334A31.25 31.25 0 0 1 239.5833333333333 364.5833333333334H281.25A31.25 31.25 0 0 1 281.25 427.0833333333334H239.5833333333333zM375 395.8333333333334A31.25 31.25 0 0 0 406.25 427.0833333333334H447.9166666666667A31.25 31.25 0 0 0 447.9166666666667 364.5833333333334H406.25A31.25 31.25 0 0 0 375 395.8333333333334zM239.5833333333333 302.0833333333334A31.25 31.25 0 0 1 239.5833333333333 239.5833333333334H281.25A31.25 31.25 0 0 1 281.25 302.0833333333334H239.5833333333333zM375 270.8333333333334A31.25 31.25 0 0 0 406.25 302.0833333333334H447.9166666666667A31.25 31.25 0 0 0 447.9166666666667 239.5833333333334H406.25A31.25 31.25 0 0 0 375 270.8333333333334zM541.6666666666666 520.8333333333334A31.25 31.25 0 0 0 572.9166666666666 552.0833333333334H614.5833333333333A31.25 31.25 0 0 0 614.5833333333333 489.5833333333334H572.9166666666666A31.25 31.25 0 0 0 541.6666666666666 520.8333333333334zM921.9583333333331 467.9166666666667C887.9583333333333 502.6250000000001 840.9999999999999 520.8333333333334 791.6249999999999 520.8333333333334C699.125 520.8333333333334 628.2916666666666 460.5 605.25 369.875H569.4166666666666A26.9583333333333 26.9583333333333 0 1 1 569.4166666666666 316H597.125C596.7083333333333 303.8333333333333 596.9166666666666 290.7916666666667 597.9583333333333 277.9583333333334H569.75A27.25 27.25 0 0 1 569.75 223.5000000000001H608.3333333333333C634.1249999999999 139.0833333333334 702.5833333333333 83.3333333333334 791.0416666666666 83.3333333333334C837.8749999999999 83.3333333333334 881.8749999999999 99.7083333333334 915.8749999999998 130.1250000000001C929.2499999999998 142.1250000000001 927.7916666666666 162.6666666666668 914.9583333333331 175.25C905.0833333333334 184.9583333333334 889.1666666666666 183.8750000000001 878.8333333333333 174.7083333333333A128.125 128.125 0 0 0 792.1666666666666 141.2083333333334C737.2916666666666 141.2083333333334 694.2916666666666 172.2500000000001 672.75 223.5000000000001H783.4166666666666A59.5833333333333 59.5833333333333 0 0 1 836.6666666666665 256.4166666666668A14.875 14.875 0 0 1 823.3333333333333 277.9583333333334H659.2916666666665A237.0833333333333 237.0833333333333 0 0 0 658.8749999999999 316H831.3749999999999C853.7499999999999 316 874.1666666666666 328.6666666666667 884.0416666666665 348.75A14.6666666666667 14.6666666666667 0 0 1 870.8749999999999 369.875H668.625C688.3333333333333 428.0416666666668 733.8333333333334 463.5 793.875 463.5C829.8333333333333 463.5 859.2916666666666 449.4166666666667 883.1666666666666 426.7083333333334C895.9166666666667 414.5416666666668 918 415.875 926.1666666666666 431.5C932.4166666666666 443.5 931.4166666666669 458.25 921.9583333333334 467.9166666666667z" />
    <glyph glyph-name="calendar"
      unicode="&#x63;&#x61;&#x6C;&#x65;&#x6E;&#x64;&#x61;&#x72;"
      horiz-adv-x="1000" d="M275.6666666666667 496.9166666666667A41.6666666666667 41.6666666666667 0 1 0 291.6666666666667 416.6666666666668A41.6666666666667 41.6666666666667 0 0 0 275.6666666666667 496.9166666666667zM500 500A41.7916666666667 41.7916666666667 0 0 1 458.9166666666666 466.5416666666666A41.6666666666667 41.6666666666667 0 0 1 500 416.6666666666668A41.6666666666667 41.6666666666667 0 1 1 500 500zM692.3333333333333 496.9166666666667A41.6666666666667 41.6666666666667 0 1 0 708.3333333333333 416.6666666666668A41.6666666666667 41.6666666666667 0 0 0 692.3333333333333 496.9166666666667zM291.6666666666667 333.3333333333334A41.75 41.75 0 0 1 250.5833333333334 299.875A41.6666666666667 41.6666666666667 0 0 1 291.6666666666667 250A41.6666666666667 41.6666666666667 0 1 1 291.6666666666667 333.3333333333334zM483.9999999999999 330.25A41.6666666666667 41.6666666666667 0 1 0 500 250A41.6666666666667 41.6666666666667 0 0 0 483.9999999999999 330.25zM697.9166666666666 864.5833333333334H791.6666666666666A114.5833333333333 114.5833333333333 0 0 0 906.25 750V208.3333333333334A114.5833333333333 114.5833333333333 0 0 0 791.6666666666666 93.75H208.3333333333333A114.5833333333333 114.5833333333333 0 0 0 93.75 208.3333333333334V750A114.5833333333333 114.5833333333333 0 0 0 208.3333333333333 864.5833333333334H302.0833333333333V916.6666666666666A31.25 31.25 0 0 0 364.5833333333333 916.6666666666666V864.5833333333334H635.4166666666666V916.6666666666666A31.25 31.25 0 1 0 697.9166666666666 916.6666666666666V864.5833333333334zM302.0833333333333 802.0833333333334H208.3333333333333A52.0833333333333 52.0833333333333 0 0 1 156.25 750V656.25H843.75V750A52.0833333333333 52.0833333333333 0 0 1 791.6666666666666 802.0833333333334H697.9166666666666V750A31.25 31.25 0 1 0 635.4166666666666 750V802.0833333333334H364.5833333333333V750A31.25 31.25 0 0 0 302.0833333333333 750V802.0833333333334zM208.3333333333333 156.25H791.6666666666666A52.0833333333333 52.0833333333333 0 0 1 843.75 208.3333333333334V593.75H156.25V208.3333333333334A52.0833333333333 52.0833333333333 0 0 1 208.3333333333333 156.25z" />
    <glyph glyph-name="calendar_add"
      unicode="&#x63;&#x61;&#x6C;&#x65;&#x6E;&#x64;&#x61;&#x72;&#x5F;&#x61;&#x64;&#x64;"
      horiz-adv-x="1000" d="M625 906.25C640.8208333333333 906.25 653.8958333333333 894.49375 655.9666666666666 879.2404166666666L656.25 875V791.6666666666667C656.25 774.4079166666667 642.2583333333332 760.4166666666667 625 760.4166666666667C609.1791666666667 760.4166666666667 596.1041666666666 772.1729166666667 594.0333333333333 787.42625L593.75 791.6666666666667V875C593.75 892.25875 607.7416666666667 906.25 625 906.25zM291.6666666666667 906.25C307.4875 906.25 320.5620833333333 894.49375 322.63125 879.2404166666666L322.9166666666667 875V791.6666666666667C322.9166666666667 774.4079166666667 308.9254166666667 760.4166666666667 291.6666666666667 760.4166666666667C275.8458333333333 760.4166666666667 262.77125 772.1729166666667 260.7020833333333 787.42625L260.4166666666667 791.6666666666667V875C260.4166666666667 892.25875 274.4079166666667 906.25 291.6666666666667 906.25zM791.6666666666666 697.9166666666667C808.925 697.9166666666667 822.9166666666666 683.9254166666667 822.9166666666666 666.6666666666667C822.9166666666666 650.8458333333333 811.1583333333333 637.77125 795.9083333333333 635.7020833333333L791.6666666666666 635.4166666666667H125C107.74125 635.4166666666667 93.75 649.4079166666667 93.75 666.6666666666667C93.75 682.4875 105.50625 695.5620833333334 120.7595833333333 697.63125L125 697.9166666666667H791.6666666666666zM708.3333333333333 864.5833333333334C769.2875 864.5833333333334 819.1 817.0287500000001 822.7083333333334 756.9820833333333L822.9166666666666 750V482.625C822.9166666666666 465.3666666666667 808.925 451.375 791.6666666666666 451.375C775.8458333333333 451.375 762.7708333333333 463.1333333333333 760.6999999999999 478.3833333333333L760.4166666666666 482.625V750C760.4166666666666 776.98375 739.9375 799.1491666666667 713.6625 801.8145833333333L708.3333333333333 802.0833333333334H208.3333333333333C181.3495833333333 802.0833333333334 159.1841666666667 781.6041666666666 156.51875 755.3283333333334L156.25 750V291.6666666666668C156.25 264.6833333333334 176.7291666666667 242.5166666666667 203.005 239.85L208.3333333333333 239.5833333333334H517.375C534.6333333333333 239.5833333333334 548.625 225.5916666666667 548.625 208.3333333333334C548.625 192.5125000000001 536.8666666666667 179.4375 521.6166666666667 177.3666666666667L517.375 177.0833333333334H208.3333333333333C147.3770833333333 177.0833333333334 97.565 224.6375000000001 93.9591666666667 284.6833333333334L93.75 291.6666666666668V750C93.75 810.95625 141.3045833333333 860.7683333333333 201.35125 864.3741666666667L208.3333333333333 864.5833333333334H708.3333333333333zM291.6254166666667 583.3333333333334L296.4875 583.0541666666667C317.22375 580.6500000000001 333.3333333333333 563.0541666666667 333.3333333333333 541.6666666666667C333.3333333333333 518.6583333333334 314.6758333333334 500 291.6666666666667 500C268.6579166666667 500 250 518.6583333333334 250.00125 541.4416666666667C249.8445833333334 563.0208333333333 266.1408333333333 580.8125 287.0733333333333 583.0875L291.6254166666667 583.3333333333334zM291.6254166666667 416.6666666666668L296.4875 416.3875000000001C317.22375 413.9833333333334 333.3333333333333 396.3875000000001 333.3333333333333 375C333.3333333333333 351.9916666666668 314.6758333333334 333.3333333333334 291.6666666666667 333.3333333333334C268.6579166666667 333.3333333333334 250 351.9916666666668 250.00125 374.7750000000001C249.8445833333334 396.3541666666667 266.1408333333333 414.1458333333334 287.0733333333333 416.4208333333334L291.6254166666667 416.6666666666668zM458.3333333333333 583.3333333333334C481.3416666666666 583.3333333333334 500 564.675 500 541.6666666666667C500 518.6583333333334 481.3416666666666 500 458.5583333333333 500C436.9791666666667 499.8458333333334 419.1875 516.1416666666667 416.9125 537.0708333333333L416.6666666666667 541.625L416.9458333333334 546.4875000000001C419.1666666666667 565.6291666666667 434.3291666666667 580.8291666666667 453.4708333333333 583.0541666666667L458.3333333333333 583.3333333333334zM699.1458333333333 52.2583333333334C571.0875 57.0875000000001 468.75 162.4166666666668 468.75 291.6666666666668C468.75 421.6166666666667 578.6041666666666 531.3958333333334 708.525 531.25C840.7708333333333 531.1541666666667 947.9166666666666 423.9208333333334 947.9166666666666 291.6666666666668C947.9166666666666 162.4291666666667 845.5916666666666 57.0875000000001 717.525 52.2583333333334L708.3333333333333 52.0833333333334L699.1458333333333 52.2583333333334zM708.4666666666666 468.75C613.0875 468.8541666666666 531.25 387.0750000000001 531.25 291.6666666666668C531.25 196.7333333333334 605.9416666666666 119.2625000000001 699.7541666666666 114.7875L708.3333333333333 114.6250000000001L716.9124999999999 114.7875C807.8958333333334 119.1291666666668 880.8749999999999 192.1166666666668 885.2125 283.0875000000001L885.4166666666666 291.6666666666668C885.4166666666666 389.4208333333334 806.2249999999999 468.6791666666667 708.4666666666666 468.75zM708.3333333333333 406.25C724.1541666666666 406.25 737.2291666666666 394.4916666666667 739.3000000000001 379.2416666666668L739.5833333333333 375V208.3333333333334C739.5833333333333 191.0750000000001 725.5916666666667 177.0833333333334 708.3333333333333 177.0833333333334C692.5124999999999 177.0833333333334 679.4375 188.8416666666667 677.3666666666666 204.0916666666667L677.0833333333333 208.3333333333334V375C677.0833333333333 392.2583333333334 691.0749999999999 406.25 708.3333333333333 406.25zM791.6666666666666 322.9166666666668C808.925 322.9166666666668 822.9166666666666 308.9250000000001 822.9166666666666 291.6666666666668C822.9166666666666 275.8458333333334 811.1583333333333 262.7708333333334 795.9083333333333 260.7L791.6666666666666 260.4166666666668H625C607.7416666666667 260.4166666666668 593.75 274.4083333333333 593.75 291.6666666666668C593.75 307.4875000000001 605.5083333333333 320.5625 620.7583333333332 322.6333333333335L625 322.9166666666668H791.6666666666666z" />
    <glyph glyph-name="calendar_half_year"
      unicode="&#x63;&#x61;&#x6C;&#x65;&#x6E;&#x64;&#x61;&#x72;&#x5F;&#x68;&#x61;&#x6C;&#x66;&#x5F;&#x79;&#x65;&#x61;&#x72;"
      horiz-adv-x="1000" d="M418.0416666666667 500L296.875 244.1666666666668H347.2916666666667L468.5416666666666 500H418.125zM234.8333333333333 477.75C254.6666666666667 477.75 265.4166666666667 485.375 266.8333333333333 500H301.9583333333333V350.0416666666668H261.25V445.7083333333334A62.9166666666667 62.9166666666667 0 0 0 234.8333333333333 440.875H221.9166666666666V477.75H234.8333333333333zM529.7916666666666 294.2916666666667L508.9166666666666 278.9583333333334H565.625V244.1666666666668H451.875V277.25L506.8333333333334 317.9583333333334C520.375 328.0416666666668 524.9166666666666 335.0000000000001 524.9166666666666 343.6666666666668C524.9166666666666 353.4166666666668 517.25 360.7500000000001 506.8333333333334 360.7500000000001C495.7083333333334 360.7500000000001 488.0416666666667 352.4166666666668 483.5 336.7083333333334L449.0833333333333 348.2083333333334C456.375 379.5000000000001 477.5833333333333 397.2500000000001 507.5416666666667 397.2500000000001C539.875 397.2500000000001 564.5833333333334 375.7083333333334 564.5833333333334 347.1666666666668C564.5833333333334 327 555.5416666666666 313.0833333333334 529.7916666666666 294.2500000000001zM775.4166666666666 329.4583333333334C775.4166666666666 278.0000000000001 742.0416666666666 244.2500000000001 691.5833333333333 244.2500000000001C659.5833333333333 244.2500000000001 633.8333333333333 258.1666666666668 619.5833333333333 281.4583333333335L655.75 312.0833333333335C663.75 298.1666666666669 676.2916666666665 290.1666666666668 691.25 290.1666666666668C712.8333333333334 290.1666666666668 726.0416666666666 305.4583333333335 726.0416666666666 330.5000000000001V499.2500000000002H775.4583333333334V329.4583333333335zM791.6666666666666 864.5833333333334H697.9166666666666V916.6666666666666A31.25 31.25 0 1 1 635.4166666666666 916.6666666666666V864.5833333333334H364.5833333333333V916.6666666666666A31.25 31.25 0 0 1 302.0833333333333 916.6666666666666V864.5833333333334H208.3333333333333A114.5833333333333 114.5833333333333 0 0 1 93.75 750V208.3333333333334A114.5833333333333 114.5833333333333 0 0 1 208.3333333333333 93.75H791.6666666666666A114.5833333333333 114.5833333333333 0 0 1 906.25 208.3333333333334V750A114.5833333333333 114.5833333333333 0 0 1 791.6666666666666 864.5833333333334zM208.3333333333333 802.0833333333334H302.0833333333333V750A31.25 31.25 0 0 1 364.5833333333333 750V802.0833333333334H635.4166666666666V750A31.25 31.25 0 1 1 697.9166666666666 750V802.0833333333334H791.6666666666666A52.0833333333333 52.0833333333333 0 0 0 843.75 750V656.25H156.25V750A52.0833333333333 52.0833333333333 0 0 0 208.3333333333333 802.0833333333334zM791.6666666666666 156.25H208.3333333333333A52.0833333333333 52.0833333333333 0 0 0 156.25 208.3333333333334V593.75H843.75V208.3333333333334A52.0833333333333 52.0833333333333 0 0 0 791.6666666666666 156.25z" />
    <glyph glyph-name="calendar_one_year"
      unicode="&#x63;&#x61;&#x6C;&#x65;&#x6E;&#x64;&#x61;&#x72;&#x5F;&#x6F;&#x6E;&#x65;&#x5F;&#x79;&#x65;&#x61;&#x72;"
      horiz-adv-x="1000" d="M697.9166666666666 864.5833333333334H791.6666666666666A114.5833333333333 114.5833333333333 0 0 0 906.25 750V208.3333333333334A114.5833333333333 114.5833333333333 0 0 0 791.6666666666666 93.75H208.3333333333333A114.5833333333333 114.5833333333333 0 0 0 93.75 208.3333333333334V750A114.5833333333333 114.5833333333333 0 0 0 208.3333333333333 864.5833333333334H302.0833333333333V916.6666666666666A31.25 31.25 0 0 0 364.5833333333333 916.6666666666666V864.5833333333334H635.4166666666666V916.6666666666666A31.25 31.25 0 1 0 697.9166666666666 916.6666666666666V864.5833333333334zM302.0833333333333 802.0833333333334H208.3333333333333A52.0833333333333 52.0833333333333 0 0 1 156.25 750V656.25H843.75V750A52.0833333333333 52.0833333333333 0 0 1 791.6666666666666 802.0833333333334H697.9166666666666V750A31.25 31.25 0 1 0 635.4166666666666 750V802.0833333333334H364.5833333333333V750A31.25 31.25 0 0 0 302.0833333333333 750V802.0833333333334zM208.3333333333333 156.25H791.6666666666666A52.0833333333333 52.0833333333333 0 0 1 843.75 208.3333333333334V593.75H156.25V208.3333333333334A52.0833333333333 52.0833333333333 0 0 1 208.3333333333333 156.25zM409.8333333333333 499.75C407.0416666666667 475.0416666666667 389.6666666666667 462.1666666666667 358.7083333333333 462.1666666666667H341.25V417.2916666666668H358.6666666666666C376.7499999999999 417.2916666666668 391 420.0833333333334 403.1666666666666 426.6666666666668V249.5833333333335H451.5416666666666V499.7500000000001H409.8333333333333zM562.2916666666666 244.7083333333334C612.75 244.7083333333334 646.1666666666666 278.4583333333334 646.1666666666666 329.9583333333334V499.75H596.7499999999999V331C596.7499999999999 305.9583333333334 583.5416666666666 290.625 561.9583333333333 290.625C546.9999999999999 290.625 534.4583333333333 298.625 526.4583333333333 312.5416666666667L490.2916666666665 281.9583333333333C504.5416666666666 258.6249999999999 530.2916666666665 244.7083333333333 562.3333333333333 244.7083333333333z" />
    <glyph glyph-name="calendar_two_years"
      unicode="&#x63;&#x61;&#x6C;&#x65;&#x6E;&#x64;&#x61;&#x72;&#x5F;&#x74;&#x77;&#x6F;&#x5F;&#x79;&#x65;&#x61;&#x72;&#x73;"
      horiz-adv-x="1041.6666666666665" d="M458.8749999999999 334.5000000000001L411.5416666666667 292.4166666666668H511.4166666666667V249.5833333333335H344.0416666666667V289.9583333333335L429.625 365.7916666666669C454.3333333333333 387.7083333333335 464.0833333333333 403.0416666666669 464.0833333333333 421.8333333333335C464.0833333333333 445.1250000000003 449.5 460.4166666666669 427.2083333333333 460.4166666666669C402.5 460.4166666666669 387.875 445.1250000000003 383.0416666666667 412.4166666666669L340.5416666666667 422.5000000000003C349.625 476.0833333333335 379.5416666666667 504.5833333333335 427.2083333333333 504.5833333333335C475.5416666666666 504.5833333333335 510.375 470.8333333333335 510.375 423.5416666666669C510.375 391.8750000000003 495.7499999999999 367.2083333333336 458.8749999999999 334.5000000000003zM689.25 330.0000000000001C689.25 278.4583333333334 655.875 244.7083333333334 605.4166666666666 244.7083333333334C573.4166666666666 244.7083333333334 547.6666666666667 258.6250000000001 533.375 281.9583333333334L569.5833333333334 312.5833333333334C577.5833333333334 298.6666666666667 590.0833333333334 290.6666666666667 605.0416666666666 290.6666666666667C626.625 290.6666666666667 639.8333333333334 305.9583333333334 639.8333333333334 331V499.75H689.25V329.9583333333334zM812.5 864.5833333333334H718.75V916.6666666666666A31.25 31.25 0 1 1 656.25 916.6666666666666V864.5833333333334H385.4166666666667V916.6666666666666A31.25 31.25 0 0 1 322.9166666666667 916.6666666666666V864.5833333333334H229.1666666666667A114.5833333333333 114.5833333333333 0 0 1 114.5833333333333 750V208.3333333333334A114.5833333333333 114.5833333333333 0 0 1 229.1666666666667 93.75H812.5A114.5833333333333 114.5833333333333 0 0 1 927.0833333333331 208.3333333333334V750A114.5833333333333 114.5833333333333 0 0 1 812.5 864.5833333333334zM229.1666666666667 802.0833333333334H322.9166666666667V750A31.25 31.25 0 0 1 385.4166666666667 750V802.0833333333334H656.25V750A31.25 31.25 0 1 1 718.75 750V802.0833333333334H812.5A52.0833333333333 52.0833333333333 0 0 0 864.5833333333333 750V656.25H177.0833333333333V750A52.0833333333333 52.0833333333333 0 0 0 229.1666666666667 802.0833333333334zM812.5 156.25H229.1666666666667A52.0833333333333 52.0833333333333 0 0 0 177.0833333333333 208.3333333333334V593.75H864.5833333333333V208.3333333333334A52.0833333333333 52.0833333333333 0 0 0 812.5 156.25z" />
    <glyph glyph-name="camera"
      unicode="&#x63;&#x61;&#x6D;&#x65;&#x72;&#x61;"
      horiz-adv-x="1000" d="M392.6666666666667 295A197.5 197.5 0 1 1 612.2916666666666 623.2916666666665A197.5 197.5 0 0 1 392.7083333333333 295zM427.6666666666667 572.375A135 135 0 0 0 502.4999999999999 595V593.75A135.4166666666667 135.4166666666667 0 0 0 637.5 458.3333333333334A135 135 0 1 0 427.6666666666667 572.375zM208.3333333333333 135.4166666666668H791.6666666666666A114.5833333333333 114.5833333333333 0 0 1 906.25 250V625A114.5833333333333 114.5833333333333 0 0 1 791.6666666666666 739.5833333333334H725.8333333333334L672.0833333333333 829.1666666666667A73.3333333333333 73.3333333333333 0 0 1 609.5833333333333 864.5833333333334H388.7499999999999A72.0833333333333 72.0833333333333 0 0 1 325.8333333333333 828.3333333333334L273.75 739.5833333333334H208.3333333333333A114.5833333333333 114.5833333333333 0 0 1 93.75 625V250A114.5833333333333 114.5833333333333 0 0 1 208.3333333333333 135.4166666666668zM171.5 661.8333333333334A52.0833333333333 52.0833333333333 0 0 0 208.3333333333333 677.0833333333334H291.6666666666667A31.6666666666667 31.6666666666667 0 0 1 318.75 692.5L379.5833333333333 797.0833333333334A11.25 11.25 0 0 0 388.75 802.0833333333334H609.5833333333333A10 10 0 0 0 618.3333333333333 797.0833333333334L681.6666666666666 692.0833333333333A31.25 31.25 0 0 1 708.3333333333333 677.0833333333333H791.6666666666666A52.0833333333333 52.0833333333333 0 0 0 843.75 625V250A52.0833333333333 52.0833333333333 0 0 0 791.6666666666666 197.9166666666668H208.3333333333333A52.0833333333333 52.0833333333333 0 0 0 156.25 250V625C156.25 638.8333333333334 161.75 652.0833333333334 171.5 661.8333333333334z" />
    <glyph glyph-name="camera_solid"
      unicode="&#x63;&#x61;&#x6D;&#x65;&#x72;&#x61;&#x5F;&#x73;&#x6F;&#x6C;&#x69;&#x64;"
      horiz-adv-x="1000" d="M427.4166666666667 347A135 135 0 1 1 577.5833333333333 571.3333333333334A135 135 0 0 1 427.4166666666667 347zM725.8333333333334 739.5833333333334H791.6666666666666A114.5833333333333 114.5833333333333 0 0 0 906.25 625V250A114.5833333333333 114.5833333333333 0 0 0 791.6666666666666 135.4166666666668H208.3333333333333A114.5833333333333 114.5833333333333 0 0 0 93.75 250V625A114.5833333333333 114.5833333333333 0 0 0 208.3333333333333 739.5833333333334H273.75L325.4166666666667 828.3333333333334A73.75 73.75 0 0 0 388.75 864.5833333333334H609.5833333333333A73.3333333333333 73.3333333333333 0 0 0 672.0833333333333 829.1666666666667L725.8333333333333 739.5833333333334zM392.7083333333333 295A197.5 197.5 0 1 1 612.2916666666666 623.3333333333333A197.5 197.5 0 0 1 392.7083333333333 295z" />
    <glyph glyph-name="car"
      unicode="&#x63;&#x61;&#x72;"
      horiz-adv-x="1000" d="M625 416.6666666666668A31.25 31.25 0 0 0 656.25 447.9166666666668H718.75A31.25 31.25 0 0 0 718.75 385.4166666666668H656.25A31.25 31.25 0 0 0 625 416.6666666666668zM281.25 447.9166666666668A31.25 31.25 0 0 1 281.25 385.4166666666668H343.75A31.25 31.25 0 0 1 343.75 447.9166666666668H281.25zM196.75 744.4583333333334A156.25 156.25 0 0 0 348.7916666666667 864.5833333333334H651.2083333333334A156.25 156.25 0 0 0 803.25 744.4583333333334L831.4166666666666 625.9166666666667L905.4999999999998 654.2083333333334A31.25 31.25 0 1 0 927.7916666666666 595.7916666666667L862.3749999999999 570.7916666666667A162.9166666666667 162.9166666666667 0 0 0 906.25 458.3333333333334V218.75C906.25 175.9166666666668 874.2916666666666 135.4166666666668 828.125 135.4166666666668H822.9166666666666C771.5833333333334 135.4166666666668 735.4166666666665 180.5833333333334 735.4166666666665 229.1666666666668V239.5833333333334H264.5833333333333V229.1666666666668C264.5833333333333 180.5833333333334 228.4166666666667 135.4166666666668 177.0833333333333 135.4166666666668H171.875C125.7083333333333 135.4166666666668 93.75 175.9166666666668 93.75 218.75V458.3333333333334A162.9166666666667 162.9166666666667 0 0 0 137.7083333333333 570.875L72.2083333333333 595.8333333333334A31.25 31.25 0 1 0 94.4583333333333 654.25L168.625 626.0416666666667L196.75 744.5zM230.0833333333334 614.375C232.5416666666667 614.5 235 614.5833333333335 237.5 614.5833333333335H762.5C764.9999999999999 614.5833333333335 767.4583333333333 614.5 769.9166666666667 614.375L742.4166666666666 730A93.75 93.75 0 0 1 651.2083333333334 802.0833333333335H348.7916666666667A93.75 93.75 0 0 1 257.5416666666667 730L230.0833333333334 614.375zM237.5 552.0833333333334C225.0416666666667 552.0833333333334 213.25 548.875 202.5833333333333 543C176.1666666666667 528.4166666666667 156.25 496.7916666666667 156.25 458.3333333333334V218.75C156.25 204.0833333333334 166.25 197.9166666666668 171.875 197.9166666666668H177.0833333333333C187.875 197.9166666666668 202.0833333333333 208.7500000000001 202.0833333333333 229.1666666666668V270.8333333333334A31.25 31.25 0 0 0 233.3333333333333 302.0833333333334H766.6666666666665A31.25 31.25 0 0 0 797.9166666666665 270.8333333333334V229.1666666666668C797.9166666666665 208.7500000000001 812.1249999999999 197.9166666666668 822.9166666666666 197.9166666666668H828.125C833.7083333333333 197.9166666666668 843.75 204.0833333333334 843.75 218.75V458.3333333333334C843.75 496.7916666666667 823.8333333333333 528.375 797.375 543A71.7083333333333 71.7083333333333 0 0 1 762.5 552.0833333333334H237.5z" />
    <glyph glyph-name="car_loading_station"
      unicode="&#x63;&#x61;&#x72;&#x5F;&#x6C;&#x6F;&#x61;&#x64;&#x69;&#x6E;&#x67;&#x5F;&#x73;&#x74;&#x61;&#x74;&#x69;&#x6F;&#x6E;"
      horiz-adv-x="1000" d="M863.2541666666666 680.8941666666667C763.3833333333333 881.6516666666666 519.675 963.4344583333332 318.915 863.5616666666667C180.9429166666666 794.9233333333333 93.7233333333333 654.0895833333334 93.75 499.9875000000001C93.6558333333333 388.1708333333334 138.0979166666667 280.8916666666667 217.2579166666667 201.875C277.6679166666667 141.6916666666667 359.4329166666667 107.9083333333334 444.6666666666667 107.9083333333334C492.4833333333333 107.9458333333333 531.2166666666667 146.6791666666667 531.25 194.4708333333334V333.3250000000001H552.0833333333333C621.1208333333333 333.3250000000001 677.0833333333333 389.2916666666668 677.0833333333333 458.325V510.4083333333334C677.0833333333333 547.7166666666667 649.0625 578.4833333333333 612.9166666666666 582.8041666666667V645.8258333333333L612.6333333333333 650.0662500000001C610.5624999999999 665.3191666666667 597.4875 677.0758333333333 581.6666666666666 677.0758333333333C564.4083333333333 677.0758333333333 550.4166666666666 663.0845833333333 550.4166666666666 645.8258333333333V583.325H449.5833333333333V645.8258333333333L449.3 650.0662500000001C447.2291666666667 665.3191666666667 434.1541666666667 677.0758333333333 418.3333333333333 677.0758333333333C401.07625 677.0758333333333 387.085 663.0845833333333 387.085 645.8258333333333V582.8083333333334C350.93875 578.4833333333333 322.9166666666667 547.7208333333333 322.9166666666667 510.4083333333334V458.325C322.9166666666667 389.2916666666668 378.88125 333.3250000000001 447.9166666666667 333.3250000000001H468.75V194.4916666666667L468.4333333333333 190.5916666666668C466.5583333333333 179.1583333333334 456.6208333333333 170.4166666666668 444.6458333333333 170.4083333333334C375.9691666666667 170.4083333333334 310.0654166666667 197.6375000000002 261.39 246.1291666666667C194.01 313.3875000000001 156.17 404.7333333333334 156.25 499.9666666666667C156.2275 630.3779166666667 230.0204166666667 749.5316666666668 346.7529166666667 807.60375C516.6083333333333 892.1020833333333 722.8 822.90875 807.2958333333332 653.05625C891.7958333333332 483.2041666666667 822.5999999999999 277.0125000000001 652.75 192.5125000000001C637.2958333333332 184.8250000000001 631 166.0666666666668 638.6875 150.6166666666667C646.375 135.1625 665.1333333333333 128.8666666666668 680.5875 136.5541666666667C881.3458333333333 236.4291666666667 963.1291666666668 480.1375 863.2541666666666 680.8941666666667zM500.2416666666667 395.8250000000001L500 395.8250000000001L499.7583333333333 395.8250000000001H447.9166666666667C413.39875 395.8250000000001 385.4166666666667 423.8083333333334 385.4166666666667 458.325V510.4083333333334C385.4166666666667 516.1625 390.0804166666666 520.825 395.8333333333333 520.825H604.1666666666666C609.9208333333332 520.825 614.5833333333333 516.1625 614.5833333333333 510.4083333333334V458.325C614.5833333333333 423.8083333333334 586.6 395.8250000000001 552.0833333333333 395.8250000000001H500.2416666666667z" />
    <glyph glyph-name="catalog"
      unicode="&#x63;&#x61;&#x74;&#x61;&#x6C;&#x6F;&#x67;"
      horiz-adv-x="1000" d="M260.4166666666667 718.75C231.6666666666667 718.75 208.3333333333333 695.4166666666667 208.3333333333333 666.6666666666667V562.5C208.3333333333333 533.75 231.6666666666667 510.4166666666667 260.4166666666667 510.4166666666667H364.5833333333333C393.3333333333333 510.4166666666667 416.6666666666667 533.75 416.6666666666667 562.5V666.6666666666667C416.6666666666667 695.4166666666667 393.3333333333333 718.75 364.5833333333333 718.75H260.4166666666667zM270.8333333333333 572.9166666666667V656.25H354.1666666666667V572.9166666666667H270.8333333333333zM166.6666666666667 427.0833333333334A31.25 31.25 0 0 0 197.9166666666667 458.3333333333334H385.4166666666667A31.25 31.25 0 0 0 385.4166666666667 395.8333333333334H197.9166666666667A31.25 31.25 0 0 0 166.6666666666667 427.0833333333334zM281.25 354.1666666666668A31.25 31.25 0 0 1 281.25 291.6666666666668H385.4166666666667A31.25 31.25 0 0 1 385.4166666666667 354.1666666666668H281.25zM583.3333333333333 447.9166666666668C583.3333333333333 476.6666666666666 606.6666666666666 500 635.4166666666666 500H739.5833333333333C768.3333333333334 500 791.6666666666666 476.6666666666666 791.6666666666666 447.9166666666668V343.75C791.6666666666666 315 768.3333333333334 291.6666666666668 739.5833333333333 291.6666666666668H635.4166666666666C606.6666666666666 291.6666666666668 583.3333333333333 315 583.3333333333333 343.75V447.9166666666668zM645.8333333333333 354.1666666666668H729.1666666666666V437.5H645.8333333333333V354.1666666666668zM583.3333333333333 687.5A31.25 31.25 0 0 0 614.5833333333333 718.75H802.0833333333333A31.25 31.25 0 0 0 802.0833333333333 656.25H614.5833333333333A31.25 31.25 0 0 0 583.3333333333333 687.5zM614.5833333333333 614.5833333333334A31.25 31.25 0 0 1 614.5833333333333 552.0833333333334H718.75A31.25 31.25 0 0 1 718.75 614.5833333333334H614.5833333333333zM52.0833333333333 718.75A114.5833333333333 114.5833333333333 0 0 0 166.6666666666667 833.3333333333334H833.3333333333333A114.5833333333333 114.5833333333333 0 0 0 947.9166666666666 718.75V281.25A114.5833333333333 114.5833333333333 0 0 0 833.3333333333333 166.6666666666668H166.6666666666667A114.5833333333333 114.5833333333333 0 0 0 52.0833333333333 281.25V718.75zM166.6666666666667 770.8333333333334C137.9166666666667 770.8333333333334 114.5833333333333 747.5 114.5833333333333 718.75V281.25C114.5833333333333 252.5 137.9166666666667 229.1666666666668 166.6666666666667 229.1666666666668H468.75V770.8333333333334H166.6666666666667zM531.25 770.8333333333334V229.1666666666668H833.3333333333333C862.0833333333334 229.1666666666668 885.4166666666666 252.5 885.4166666666666 281.25V718.75C885.4166666666666 747.5 862.0833333333334 770.8333333333334 833.3333333333333 770.8333333333334H531.25z" />
    <glyph glyph-name="change"
      unicode="&#x63;&#x68;&#x61;&#x6E;&#x67;&#x65;"
      horiz-adv-x="1000" d="M186.25 648.75A34.1666666666667 34.1666666666667 0 0 0 177.0833333333333 671.0416666666667A32.5 32.5 0 0 0 186.25 692.9166666666667L307.0833333333333 813.75A31.25 31.25 0 1 0 351.25 769.5833333333334L283.75 702.0833333333333H791.6666666666666A31.25 31.25 0 1 0 791.6666666666666 639.5833333333333H283.75L351.25 572.5A31.25 31.25 0 0 0 329.1666666666667 519.1666666666667A29.5833333333333 29.5833333333333 0 0 0 307.0833333333333 528.3333333333335L186.25 648.7500000000001zM813.75 351.25A34.1666666666667 34.1666666666667 0 0 0 822.9166666666666 328.9583333333334A32.4166666666667 32.4166666666667 0 0 0 813.75 307.0833333333334L692.9166666666667 186.2500000000001A29.5833333333333 29.5833333333333 0 0 0 670.8333333333334 177.0833333333335A30.8333333333333 30.8333333333333 0 0 0 648.75 186.2500000000001A31.25 31.25 0 0 0 648.75 230.4166666666668L716.25 297.9166666666668H208.3333333333333A31.25 31.25 0 1 0 208.3333333333333 360.4166666666668H716.2499999999999L648.7499999999998 427.5000000000001A31.25 31.25 0 0 0 648.7499999999998 471.6666666666667A30.8333333333333 30.8333333333333 0 0 0 692.9166666666664 471.6666666666667L813.7499999999997 351.2500000000001z" />
    <glyph glyph-name="chat"
      unicode="&#x63;&#x68;&#x61;&#x74;"
      horiz-adv-x="1000" d="M875 906.25H375A31.6666666666667 31.6666666666667 0 0 1 343.75 875V701.25H121.6666666666667A30 30 0 0 1 99.5833333333333 691.6666666666667A31.25 31.25 0 0 1 90.4166666666666 669.5833333333333L93.75 125A30.4166666666667 30.4166666666667 0 0 1 112.9166666666667 96.6666666666667C116.75 95.0000000000001 120.8333333333333 94.1666666666667 125 94.1666666666667A32.0833333333333 32.0833333333333 0 0 1 147.0833333333334 103.3333333333334L262.9166666666667 219.1666666666668H625A31.25 31.25 0 0 1 656.25 250.8333333333335V427.5000000000003H739.5833333333333L855.4166666666666 311.6666666666669A32.0833333333333 32.0833333333333 0 0 1 877.5 302.5000000000003C881.6666666666667 302.5000000000003 885.7500000000001 303.3333333333336 889.5833333333334 305.0000000000003A30.8333333333333 30.8333333333333 0 0 1 908.75 333.7500000000003V875A31.6666666666667 31.6666666666667 0 0 1 875.0000000000001 906.25zM593.3333333333333 281.25H250A31.25 31.25 0 0 1 227.9166666666667 272.0833333333334L155.8333333333334 200.0000000000001L153.3333333333334 638.75H343.75V458.3333333333334A31.6666666666667 31.6666666666667 0 0 1 375 427.0833333333334H592.4999999999999L593.3333333333333 281.25zM843.3333333333334 408.75L771.6666666666667 480.4166666666667A31.25 31.25 0 0 1 749.5833333333334 489.5833333333334H406.25V843.7500000000001H843.75L843.3333333333333 408.7500000000001z" />
    <glyph glyph-name="chat_solid"
      unicode="&#x63;&#x68;&#x61;&#x74;&#x5F;&#x73;&#x6F;&#x6C;&#x69;&#x64;"
      horiz-adv-x="1000" d="M375 906.25H875A32.0833333333333 32.0833333333333 0 0 0 906.25 875V333.3333333333334A31.25 31.25 0 0 0 852.9166666666665 311.25L737.0833333333331 427.0833333333333H375A32.0833333333333 32.0833333333333 0 0 0 343.75 458.3333333333333V875A32.0833333333333 32.0833333333333 0 0 0 375 906.25zM302.0833333333333 701.25V416.6666666666668A31.6666666666667 31.6666666666667 0 0 1 333.3333333333333 385.8333333333334H656.25V250.8333333333334A31.25 31.25 0 0 0 625 219.1666666666666H262.9166666666667L147.0833333333333 103.3333333333333A31.25 31.25 0 0 0 112.9166666666667 96.6666666666666A30.4166666666667 30.4166666666667 0 0 0 93.75 124.9999999999999L90.4166666666667 669.5833333333334C90.4166666666667 677.875 93.75 685.8333333333334 99.5833333333333 691.6666666666667A30 30 0 0 0 121.6666666666667 701.25H302.0833333333333z" />
    <glyph glyph-name="check"
      unicode="&#x63;&#x68;&#x65;&#x63;&#x6B;"
      horiz-adv-x="1000" d="M375 239.5833333333334A30.8333333333333 30.8333333333333 0 0 0 352.9166666666667 250L144.5833333333334 458.3333333333334A31.25 31.25 0 1 0 188.75 500L375 315L811.2499999999999 750A31.25 31.25 0 0 0 855.4166666666665 708.3333333333334L397.0833333333332 250A30.8333333333333 30.8333333333333 0 0 0 374.9999999999999 239.5833333333334z" />
    <glyph glyph-name="check_alt_solid"
      unicode="&#x63;&#x68;&#x65;&#x63;&#x6B;&#x5F;&#x61;&#x6C;&#x74;&#x5F;&#x73;&#x6F;&#x6C;&#x69;&#x64;"
      horiz-adv-x="1000" d="M488.5 906.0833333333334L500 906.25C719.9166666666665 906.25 899.7083333333333 731.25 906.0833333333334 511.5L906.2500000000002 500C906.2500000000002 280.0833333333335 731.2500000000001 100.2916666666667 511.5000000000001 93.9166666666666L500 93.75C280.0833333333333 93.75 100.2916666666667 268.75 93.9166666666666 488.5000000000001L93.75 500C93.75 719.9166666666667 268.75 899.7083333333334 488.5 906.0833333333334zM666.5416666666666 622.2916666666667A31.25 31.25 0 0 1 622.3749999999999 622.25L441.0833333333333 440.6666666666668L373.75 507.9583333333334L370.25 511.0000000000001A31.25 31.25 0 0 1 329.5833333333333 507.9583333333334L326.5416666666667 504.4583333333334A31.25 31.25 0 0 1 329.5833333333333 463.7916666666667L418.9583333333333 374.375L422.9583333333333 370.7083333333334C439.7083333333333 357.1666666666668 460.0416666666666 365.1666666666667 469.0416666666666 379.7916666666668L469.4583333333333 380.7083333333334L666.5416666666666 578.0833333333334L669.5833333333333 581.625A31.25 31.25 0 0 1 666.5416666666666 622.2916666666667z" />
    <glyph glyph-name="cinema"
      unicode="&#x63;&#x69;&#x6E;&#x65;&#x6D;&#x61;"
      horiz-adv-x="1000" d="M208.3333333333333 906.25H791.6666666666666A114.5833333333333 114.5833333333333 0 0 0 906.25 791.6666666666667V208.3333333333334A114.5833333333333 114.5833333333333 0 0 0 791.6666666666666 93.75H208.3333333333333A114.5833333333333 114.5833333333333 0 0 0 93.75 208.3333333333334V791.6666666666667A114.5833333333333 114.5833333333333 0 0 0 208.3333333333333 906.25zM156.25 677.0833333333334V531.25H260.4166666666667V677.0833333333334H156.25zM260.4166666666667 739.5833333333334V843.75H208.3333333333333C179.5833333333334 843.75 156.25 820.4166666666666 156.25 791.6666666666667V739.5833333333334H260.4166666666667zM322.9166666666667 531.25H677.0833333333333V843.75H322.9166666666667V531.25zM739.5833333333333 677.0833333333334V531.25H843.75V677.0833333333334H739.5833333333333zM843.75 739.5833333333334V791.6666666666667C843.75 820.4166666666666 820.4166666666666 843.75 791.6666666666666 843.75H739.5833333333333V739.5833333333334H843.75zM843.75 468.75H739.5833333333333V322.9166666666668H843.75V468.75zM843.75 260.4166666666668H739.5833333333333V156.25H791.6666666666666C820.4166666666666 156.25 843.75 179.5833333333334 843.75 208.3333333333334V260.4166666666668zM677.0833333333333 468.75H322.9166666666667V156.25H677.0833333333333V468.75zM260.4166666666667 322.9166666666668V468.75H156.25V322.9166666666668H260.4166666666667zM156.25 260.4166666666668V208.3333333333334C156.25 179.5833333333334 179.5833333333334 156.25 208.3333333333333 156.25H260.4166666666667V260.4166666666668H156.25z" />
    <glyph glyph-name="close"
      unicode="&#x63;&#x6C;&#x6F;&#x73;&#x65;"
      horiz-adv-x="1000" d="M264.2916666666667 735.7083333333334A31.25 31.25 0 0 1 264.2916666666667 691.5416666666667L455.7916666666666 500L264.2916666666667 308.5A31.25 31.25 0 1 1 308.4583333333333 264.3333333333334L500 455.75L691.5 264.25A31.25 31.25 0 1 1 735.6666666666666 308.4166666666667L544.1666666666666 500L735.6666666666666 691.5A31.25 31.25 0 0 1 691.5 735.6666666666667L500 544.25L308.4583333333333 735.7083333333334A31.25 31.25 0 0 1 264.2916666666667 735.7083333333334z" />
    <glyph glyph-name="collapse_arrows"
      unicode="&#x63;&#x6F;&#x6C;&#x6C;&#x61;&#x70;&#x73;&#x65;&#x5F;&#x61;&#x72;&#x72;&#x6F;&#x77;&#x73;"
      horiz-adv-x="1000" d="M865.125 561.4583333333334H595.2916666666667A31.1666666666667 31.1666666666667 0 0 0 564.1666666666667 592.5833333333333V861.7916666666666A30.2916666666667 30.2916666666667 0 0 0 573.2916666666667 883.8333333333334A30.7083333333333 30.7083333333333 0 0 0 595.2916666666667 892.9583333333334A31.1666666666667 31.1666666666667 0 0 0 626.4583333333334 861.7916666666666L627.0416666666666 667.2083333333334L865.0833333333333 905.2916666666669A31.1666666666667 31.1666666666667 0 1 0 909.1666666666666 861.2083333333334L670.8333333333334 622.9166666666667L865.125 623.75A31.1666666666667 31.1666666666667 0 0 0 865.125 561.5zM136.9583333333333 436.5833333333334H406.75A31.1666666666667 31.1666666666667 0 0 0 437.9166666666667 405.4583333333334V136.25A30.25 30.25 0 0 0 428.7916666666667 114.2083333333334A30.7083333333333 30.7083333333333 0 0 0 406.75 105.125A31.1666666666667 31.1666666666667 0 0 0 375.625 136.25L375 330.8333333333334L136.9583333333333 92.75A31.1666666666667 31.1666666666667 0 0 0 92.875 136.8333333333334L331.2083333333333 375.1666666666667L136.9166666666666 374.3333333333333A31.1666666666667 31.1666666666667 0 0 0 136.9166666666666 436.5833333333333z" />
    <glyph glyph-name="comment"
      unicode="&#x63;&#x6F;&#x6D;&#x6D;&#x65;&#x6E;&#x74;"
      horiz-adv-x="1000" d="M125 93.75C120.8333333333333 93.75 116.75 94.5833333333334 112.9166666666667 96.25A30.8333333333333 30.8333333333333 0 0 0 93.75 125V875A31.6666666666667 31.6666666666667 0 0 0 125 906.25H875A31.6666666666667 31.6666666666667 0 0 0 906.25 875V333.3333333333334A31.6666666666667 31.6666666666667 0 0 0 875 302.0833333333334H346.25L147.0833333333334 102.9166666666666A32.0833333333333 32.0833333333333 0 0 0 125 93.75zM156.25 843.75V200.4166666666669L311.25 355.4166666666669A31.25 31.25 0 0 0 333.3333333333333 364.5833333333335H843.75V843.75H156.25z" />
    <glyph glyph-name="comment_solid"
      unicode="&#x63;&#x6F;&#x6D;&#x6D;&#x65;&#x6E;&#x74;&#x5F;&#x73;&#x6F;&#x6C;&#x69;&#x64;"
      horiz-adv-x="1000" d="M125 93.75C120.8333333333333 93.75 116.75 94.5833333333334 112.9166666666667 96.25A30.8333333333333 30.8333333333333 0 0 0 93.75 125V875A31.6666666666667 31.6666666666667 0 0 0 125 906.25H875A31.6666666666667 31.6666666666667 0 0 0 906.25 875V333.3333333333334A31.6666666666667 31.6666666666667 0 0 0 875 302.0833333333334H346.25L147.0833333333334 102.9166666666666A32.0833333333333 32.0833333333333 0 0 0 125 93.75z" />
    <glyph glyph-name="contrast"
      unicode="&#x63;&#x6F;&#x6E;&#x74;&#x72;&#x61;&#x73;&#x74;"
      horiz-adv-x="1000" d="M500 906.25A405.8333333333333 405.8333333333333 0 0 1 94.5833333333333 501.25A402.5 402.5 0 0 1 136.25 322.9166666666668A405.8333333333333 405.8333333333333 0 1 1 500 906.25zM184.1666666666667 635.4166666666667H468.75V531.25H157.9166666666667A335.8333333333333 335.8333333333333 0 0 0 184.1666666666667 635.4166666666667zM157.9166666666667 468.75H468.75V364.5833333333334H184.1666666666667A335.7916666666666 335.7916666666666 0 0 0 157.9166666666667 468.75zM468.75 843.75V697.9166666666667H218.75A342.9166666666667 342.9166666666667 0 0 0 468.75 842.0833333333334V843.75zM218.75 302.0833333333334H468.75V157.9166666666666A342.8333333333333 342.8333333333333 0 0 0 219.5833333333333 302.0833333333334H218.75zM530.4166666666666 157.9166666666666V842.0833333333334A343.3333333333333 343.3333333333333 0 0 0 530.4166666666666 157.9166666666666z" />
    <glyph glyph-name="copy"
      unicode="&#x63;&#x6F;&#x70;&#x79;"
      horiz-adv-x="1000" d="M830.8333333333334 766.6666666666667L724.9999999999999 872.5A113.75 113.75 0 0 1 644.1666666666666 906.25H375A114.5833333333333 114.5833333333333 0 0 1 260.4166666666667 791.6666666666667V781.25H250A114.5833333333333 114.5833333333333 0 0 1 135.4166666666667 666.6666666666667V208.3333333333334A114.5833333333333 114.5833333333333 0 0 1 250 93.75H625A114.5833333333333 114.5833333333333 0 0 1 739.5833333333333 208.3333333333334V230.8333333333334H750A114.5833333333333 114.5833333333333 0 0 1 864.5833333333333 345.4166666666667V685.8333333333334A113.7083333333333 113.7083333333333 0 0 1 830.8333333333334 766.6666666666667zM786.6666666666667 722.5C793.3333333333334 715.7916666666667 797.8333333333334 707.2083333333334 799.5833333333334 697.9166666666667H666.6666666666666A10.4166666666667 10.4166666666667 0 0 0 656.25 708.3333333333334V841.25C665.5416666666666 839.5 674.1249999999999 835 680.8333333333333 828.3333333333334L786.6666666666666 722.5zM677.0833333333333 208.3333333333334A52.0833333333333 52.0833333333333 0 0 0 625 156.25H250A52.0833333333333 52.0833333333333 0 0 0 197.9166666666667 208.3333333333334V666.6666666666667A52.0833333333333 52.0833333333333 0 0 0 250 718.75H260.4166666666667V343.75A114.5833333333333 114.5833333333333 0 0 1 375 230.8333333333334H677.0833333333333V208.3333333333334zM750 291.6666666666668H375A52.0833333333333 52.0833333333333 0 0 0 322.9166666666667 343.75V791.6666666666667A52.0833333333333 52.0833333333333 0 0 0 375 843.75H593.75V708.3333333333334A73.3333333333333 73.3333333333333 0 0 1 666.6666666666666 635.4166666666667H802.0833333333333V343.75A52.0833333333333 52.0833333333333 0 0 0 750 291.6666666666668z" />
    <glyph glyph-name="crop"
      unicode="&#x63;&#x72;&#x6F;&#x70;"
      horiz-adv-x="1000" d="M338.1666666666667 338.1666666666668C347.9583333333333 328.4166666666667 361.1666666666667 322.9166666666668 375 322.9166666666668H875A31.25 31.25 0 1 0 875 260.4166666666668H739.5833333333333V125A31.25 31.25 0 1 0 677.0833333333333 125V260.4166666666668H375A114.5833333333333 114.5833333333333 0 0 0 260.4166666666667 375V677.0833333333334H125A31.25 31.25 0 0 0 125 739.5833333333334H260.4166666666667V875A31.25 31.25 0 0 0 322.9166666666667 875V375C322.9166666666667 361.1666666666667 328.4166666666667 347.9166666666668 338.1666666666667 338.1666666666668zM625 677.0833333333334H458.3333333333333A31.25 31.25 0 1 0 458.3333333333333 739.5833333333334H625A114.5833333333333 114.5833333333333 0 0 0 739.5833333333333 625V458.3333333333334A31.25 31.25 0 1 0 677.0833333333333 458.3333333333334V625A52.0833333333333 52.0833333333333 0 0 1 625 677.0833333333334z" />
    <glyph glyph-name="delete"
      unicode="&#x64;&#x65;&#x6C;&#x65;&#x74;&#x65;"
      horiz-adv-x="1000" d="M375 812.5H625A31.25 31.25 0 1 1 625 875H375A31.25 31.25 0 0 1 375 812.5zM416.6666666666667 302.0833333333334A31.6666666666667 31.6666666666667 0 0 0 385.4166666666667 333.3333333333334V541.6666666666667A31.25 31.25 0 1 0 447.9166666666667 541.6666666666667V333.3333333333334A31.6666666666667 31.6666666666667 0 0 0 416.6666666666667 302.0833333333334zM561.375 311.375C567.2083333333334 305.5416666666667 575.0833333333334 302.2083333333334 583.3333333333333 302.0833333333334A31.6666666666667 31.6666666666667 0 0 1 614.5833333333333 333.3333333333334V541.6666666666667A31.25 31.25 0 1 1 552.0833333333333 541.6666666666667V333.3333333333334A31.6666666666667 31.6666666666667 0 0 1 561.375 311.375zM208.3333333333333 739.5833333333334H791.6666666666666A31.25 31.25 0 1 0 791.6666666666666 677.0833333333334H781.25V250A114.5833333333333 114.5833333333333 0 0 0 666.6666666666666 135.4166666666668H333.3333333333333A114.5833333333333 114.5833333333333 0 0 0 218.75 250V677.0833333333334H208.3333333333333A31.25 31.25 0 0 0 208.3333333333333 739.5833333333334zM703.5 213.1666666666668A52.0833333333333 52.0833333333333 0 0 1 718.75 250V677.0833333333334H281.25V250A52.0833333333333 52.0833333333333 0 0 1 333.3333333333333 197.9166666666668H666.6666666666666C680.4583333333333 197.9166666666668 693.7499999999999 203.4166666666668 703.5 213.1666666666668z" />
    <glyph glyph-name="delete_solid"
      unicode="&#x64;&#x65;&#x6C;&#x65;&#x74;&#x65;&#x5F;&#x73;&#x6F;&#x6C;&#x69;&#x64;"
      horiz-adv-x="1000" d="M375 812.5H625A31.25 31.25 0 1 1 625 875H375A31.25 31.25 0 0 1 375 812.5zM208.3333333333333 739.5833333333334H791.6666666666666A31.25 31.25 0 1 0 791.6666666666666 677.0833333333334H781.25V250A114.5833333333333 114.5833333333333 0 0 0 666.6666666666666 135.4166666666668H333.3333333333333A114.5833333333333 114.5833333333333 0 0 0 218.75 250V677.0833333333334H208.3333333333333A31.25 31.25 0 0 0 208.3333333333333 739.5833333333334zM438.75 311.25A31.25 31.25 0 0 1 447.9166666666668 333.3333333333334V541.6666666666667A31.25 31.25 0 1 1 385.4166666666668 541.6666666666667V333.3333333333334A31.25 31.25 0 0 1 438.75 311.25zM605.4166666666666 311.25A31.25 31.25 0 0 1 614.5833333333334 333.3333333333334V541.6666666666667A31.25 31.25 0 1 1 552.0833333333334 541.6666666666667V333.3333333333334A31.25 31.25 0 0 1 605.4166666666666 311.25z" />
    <glyph glyph-name="desktop"
      unicode="&#x64;&#x65;&#x73;&#x6B;&#x74;&#x6F;&#x70;"
      horiz-adv-x="1000" d="M489.5833333333333 833.3333333333334C489.5833333333333 873.5833333333334 522.25 906.25 562.5 906.25H833.3333333333333C873.5833333333334 906.25 906.25 873.5833333333334 906.25 833.3333333333334V208.3333333333334A72.9166666666667 72.9166666666667 0 0 0 833.3333333333333 135.4166666666668H697.9166666666666A31.25 31.25 0 0 0 697.9166666666666 197.9166666666668H833.3333333333333A10.4166666666667 10.4166666666667 0 0 1 843.75 208.3333333333334V833.3333333333334A10.4166666666667 10.4166666666667 0 0 1 833.3333333333333 843.75H562.5A10.4166666666667 10.4166666666667 0 0 1 552.0833333333333 833.3333333333334V742.2083333333334C552.0833333333333 741.3333333333334 552.0833333333333 740.4583333333334 551.9583333333333 739.5833333333334H666.6666666666666C706.9166666666666 739.5833333333334 739.5833333333333 706.9166666666667 739.5833333333333 666.6666666666667V333.3333333333334A72.9166666666667 72.9166666666667 0 0 0 666.6666666666666 260.4166666666668H447.9166666666667V197.9166666666668H562.5A31.25 31.25 0 0 0 562.5 135.4166666666668H270.8333333333333A31.25 31.25 0 0 0 270.8333333333333 197.9166666666668H385.4166666666667V260.4166666666668H166.6666666666667A72.9166666666667 72.9166666666667 0 0 0 93.75 333.3333333333334V666.6666666666667C93.75 706.9166666666667 126.4166666666667 739.5833333333334 166.6666666666667 739.5833333333334H489.7083333333333A32.1666666666667 32.1666666666667 0 0 0 489.5833333333333 742.2083333333333V833.3333333333334zM666.6666666666666 322.9166666666668A10.4166666666667 10.4166666666667 0 0 1 677.0833333333333 333.3333333333334V666.6666666666667A10.4166666666667 10.4166666666667 0 0 1 666.6666666666666 677.0833333333334H166.6666666666667A10.4166666666667 10.4166666666667 0 0 1 156.25 666.6666666666667V333.3333333333334C156.25 327.5833333333333 160.9166666666667 322.9166666666668 166.6666666666667 322.9166666666668H666.6666666666666z" />
    <glyph glyph-name="diamond"
      unicode="&#x64;&#x69;&#x61;&#x6D;&#x6F;&#x6E;&#x64;"
      horiz-adv-x="1000" d="M274.0416666666667 864.5833333333334H725.9583333333334C742.6666666666667 864.5833333333334 757.4166666666666 864.625 771.2083333333333 860.3333333333334C783.2916666666666 856.5416666666667 794.5 850.3333333333334 804.1249999999999 842.0833333333334C815.1249999999999 832.7083333333334 822.9166666666666 820.2083333333333 831.7916666666666 806.0416666666666L833.625 803.125L943.125 628.5833333333333A31.25 31.25 0 0 0 940.4166666666666 591.6666666666667L523.75 104.6666666666667A31.25 31.25 0 0 0 476.2499999999999 104.6666666666667L59.5833333333333 591.6666666666667A31.25 31.25 0 0 0 56.875 628.5833333333333L166.375 803.0833333333333L168.2083333333333 806.0416666666666C177.0833333333333 820.2083333333333 184.875 832.7083333333333 195.875 842.0833333333333C205.5 850.3333333333333 216.7083333333333 856.5416666666666 228.7916666666667 860.3333333333333C242.5833333333333 864.625 257.3333333333333 864.625 274.0416666666667 864.5833333333333zM277.5416666666667 802.0833333333334C255.3333333333333 802.0833333333334 250.9583333333333 801.75 247.4583333333333 800.6666666666667A31.25 31.25 0 0 1 236.5 794.5833333333334C233.7083333333333 792.2083333333334 231.0833333333334 788.7083333333334 219.2916666666667 769.875L139.8333333333333 643.2083333333335H325.0416666666667L353.5416666666667 802.0833333333335H277.5zM417.0416666666667 802.0833333333334L388.5416666666667 643.25H611.4583333333334L583 802.0833333333334H417zM646.4583333333334 802.0833333333334L674.9583333333334 643.25H860.1666666666667L780.7083333333334 769.9166666666667C768.9166666666666 788.6666666666667 766.2916666666667 792.2083333333334 763.5 794.5833333333334A31.25 31.25 0 0 1 752.5416666666666 800.6666666666667C749.0416666666666 801.75 744.6666666666666 802.0833333333334 722.4583333333333 802.0833333333334H646.4999999999999zM848.7916666666667 580.75H671.9583333333334L573.6666666666667 259.1666666666667L848.7916666666667 580.75zM500 231.9583333333334L606.5833333333333 580.7083333333333H393.4166666666667L500 232.0000000000001zM328.0833333333333 580.7083333333333H151.2083333333333L426.3333333333333 259.1666666666667L328.0833333333333 580.75z" />
    <glyph glyph-name="doctor"
      unicode="&#x64;&#x6F;&#x63;&#x74;&#x6F;&#x72;"
      horiz-adv-x="1000" d="M791.6666666666666 739.5833333333334H691.25L671.2499999999999 819.5833333333334A115 115 0 0 1 560 906.25H440A115 115 0 0 1 328.75 819.5833333333334L308.7499999999999 739.5833333333334H208.3333333333333A114.5833333333333 114.5833333333333 0 0 1 93.75 625V250A114.5833333333333 114.5833333333333 0 0 1 208.3333333333333 135.4166666666668H791.6666666666666A114.5833333333333 114.5833333333333 0 0 1 906.25 250V625A114.5833333333333 114.5833333333333 0 0 1 791.6666666666666 739.5833333333334zM389.5833333333333 804.1666666666666A52.0833333333333 52.0833333333333 0 0 0 440 845.8333333333334H559.9999999999999A52.0833333333333 52.0833333333333 0 0 0 610.4166666666666 804.1666666666666L625 739.5833333333334H375L389.5833333333333 804.1666666666666zM843.75 250A52.0833333333333 52.0833333333333 0 0 0 791.6666666666666 197.9166666666668H208.3333333333333A52.0833333333333 52.0833333333333 0 0 0 156.25 250V625A52.0833333333333 52.0833333333333 0 0 0 208.3333333333333 677.0833333333334H791.6666666666666A52.0833333333333 52.0833333333333 0 0 0 843.75 625V250zM604.1666666666666 468.75H531.25V541.6666666666667A31.25 31.25 0 1 1 468.75 541.6666666666667V468.75H395.8333333333333A31.25 31.25 0 1 1 395.8333333333333 406.25H468.75V333.3333333333334A31.25 31.25 0 1 1 531.25 333.3333333333334V406.25H604.1666666666666A31.25 31.25 0 1 1 604.1666666666666 468.75z" />
    <glyph glyph-name="download"
      unicode="&#x64;&#x6F;&#x77;&#x6E;&#x6C;&#x6F;&#x61;&#x64;"
      horiz-adv-x="1000" d="M485.8333333333333 264.1666666666668A33.3333333333333 33.3333333333333 0 0 0 477.9166666666667 269.5833333333334L269.5833333333334 477.9166666666666A31.25 31.25 0 0 0 313.7500000000001 522.0833333333333L465.4166666666667 367.0833333333334V875A31.25 31.25 0 0 0 527.9166666666667 875V365.8333333333334L682.9166666666666 520.8333333333334A31.25 31.25 0 0 0 727.0833333333333 476.6666666666666L518.7499999999999 268.3333333333333A32.4166666666667 32.4166666666667 0 0 0 508.7499999999999 261.6666666666667A24.1666666666667 24.1666666666667 0 0 0 497.9166666666666 261.6666666666667A30 30 0 0 0 485.8333333333333 264.1666666666665zM166.6666666666667 156.25H833.3333333333333A31.25 31.25 0 1 0 833.3333333333333 93.75H166.6666666666667A31.25 31.25 0 1 0 166.6666666666667 156.25z" />
    <glyph glyph-name="drag_indicator"
      unicode="&#x64;&#x72;&#x61;&#x67;&#x5F;&#x69;&#x6E;&#x64;&#x69;&#x63;&#x61;&#x74;&#x6F;&#x72;"
      horiz-adv-x="1000" d="M375 687.5A62.5 62.5 0 1 1 375 812.5A62.5 62.5 0 0 1 375 687.5zM625 687.5A62.5 62.5 0 1 1 625 812.5A62.5 62.5 0 0 1 625 687.5zM437.5 500A62.5 62.5 0 1 0 312.5 500A62.5 62.5 0 0 0 437.5 500zM625 437.5A62.5 62.5 0 1 1 625 562.5A62.5 62.5 0 0 1 625 437.5zM437.5 250A62.5 62.5 0 1 0 312.5 250A62.5 62.5 0 0 0 437.5 250zM625 187.5A62.5 62.5 0 1 1 625 312.5A62.5 62.5 0 0 1 625 187.5z" />
    <glyph glyph-name="drugstore"
      unicode="&#x64;&#x72;&#x75;&#x67;&#x73;&#x74;&#x6F;&#x72;&#x65;"
      horiz-adv-x="1000" d="M656.25 895.8333333333334A31.25 31.25 0 0 1 625 927.0833333333334H409.5L401.25 926.7916666666666A114.625 114.625 0 0 1 328.5 893.5L311.25 876.25L308.2083333333333 872.75A31.25 31.25 0 0 1 355.4166666666666 832.0833333333334L372.6666666666665 849.3333333333334L377.0833333333332 853.25A52.0833333333333 52.0833333333333 0 0 0 409.4999999999999 864.5833333333334H468.7499999999999V802.0833333333334H437.4999999999999A72.9166666666667 72.9166666666667 0 0 1 364.5833333333333 729.1666666666667V672.75A186.0833333333334 186.0833333333334 0 0 1 218.75 491.0833333333334V187.5A114.5833333333333 114.5833333333333 0 0 1 333.3333333333333 72.9166666666667H666.6666666666666A114.5833333333333 114.5833333333333 0 0 1 781.25 187.5V491.0833333333334A186.0833333333334 186.0833333333334 0 0 1 635.4166666666666 672.75V729.1666666666667A72.9166666666667 72.9166666666667 0 0 1 562.5 802.0833333333334H531.25V864.5833333333334H625L629.25 864.875A31.25 31.25 0 0 1 656.25 895.8333333333334zM437.5 739.5833333333334H562.5L564.875 739.2916666666667A10.4166666666667 10.4166666666667 0 0 0 572.9166666666666 729.1666666666667V677.0833333333334H427.0833333333333V729.1666666666667A10.4166666666667 10.4166666666667 0 0 0 437.5 739.5833333333334zM281.25 491.0833333333334A123.5 123.5 0 0 0 404.75 614.5833333333334H595.25A123.5 123.5 0 0 0 718.75 491.0833333333334V187.5C718.75 158.75 695.4166666666666 135.4166666666668 666.6666666666666 135.4166666666668H333.3333333333333C304.5833333333333 135.4166666666668 281.25 158.75 281.25 187.5V491.0833333333334z" />
    <glyph glyph-name="edit"
      unicode="&#x65;&#x64;&#x69;&#x74;"
      horiz-adv-x="1000" d="M801.6666666666665 731.6666666666667L731.6666666666665 801.6666666666666A72.9166666666667 72.9166666666667 0 0 1 628.7499999999999 801.6666666666666L198.3333333333333 371.25A72.5 72.5 0 0 1 177.0833333333333 319.5833333333335V208.3333333333334A31.6666666666667 31.6666666666667 0 0 1 208.3333333333333 177.0833333333334H319.5833333333333C338.9166666666667 177.0833333333334 357.5 184.7083333333334 371.25 198.3333333333335L801.6666666666665 628.75A72.9166666666667 72.9166666666667 0 0 1 801.6666666666665 731.6666666666667zM327.0833333333333 242.5A12.0833333333333 12.0833333333333 0 0 0 319.5833333333333 239.5833333333334H239.5833333333333V319.5833333333335A12.0833333333333 12.0833333333333 0 0 0 242.5 327.0833333333335L572.9166666666666 657.5L656.25 574.1666666666667L327.0833333333333 242.5zM757.5 672.9166666666667L701.6666666666666 617.0833333333334L618.3333333333333 700.4166666666667L674.1666666666666 756.25A10.8333333333333 10.8333333333333 0 0 0 688.75 756.25L757.5 687.5A10.8333333333333 10.8333333333333 0 0 0 757.5 672.9166666666667z" />
    <glyph glyph-name="edited"
      unicode="&#x65;&#x64;&#x69;&#x74;&#x65;&#x64;"
      horiz-adv-x="1000" d="M801.6666666666665 814.9995833333334L731.6666666666665 884.9995833333334C717.9999999999999 898.6120833333333 699.5 906.255 680.2083333333333 906.255C660.9208333333332 906.255 642.4166666666666 898.6120833333333 628.75 884.9995833333334L198.3341666666667 454.5833333333334C191.55125 447.8041666666667 186.1804166666667 439.7458333333334 182.5329166666667 430.8791666666667C178.8854166666666 422.0083333333334 177.0333333333333 412.5041666666667 177.0841666666667 402.9166666666668V291.6666666666668C177.1920833333333 283.4125 180.5191666666667 275.5250000000001 186.3566666666667 269.6875C192.19375 263.85 200.08 260.5250000000001 208.3341666666667 260.4166666666668H319.5841666666667C338.9358333333334 260.4041666666667 357.5070833333334 268.0416666666668 371.2508333333333 281.6666666666668L801.6666666666665 712.0829166666667C815.2791666666667 725.7491666666667 822.925 744.2520833333333 822.925 763.54125C822.925 782.8304166666667 815.2791666666667 801.3333333333334 801.6666666666665 814.9995833333334zM327.0841666666667 325.8333333333334C324.9908333333334 324.0333333333334 322.3441666666667 323.0041666666666 319.5841666666667 322.9166666666668H239.5841666666667V402.9166666666668C239.67125 405.6750000000001 240.7004166666667 408.3250000000001 242.5008333333334 410.4166666666667L572.9166666666666 740.8329166666667L656.25 657.4995833333334L327.0841666666667 325.8333333333334zM757.5 756.2495833333334L701.6666666666666 700.41625L618.3333333333333 783.7495833333334L674.1666666666666 839.5829166666667C676.1625 841.3983333333333 678.7624999999999 842.4041666666667 681.4583333333333 842.4041666666667C684.1583333333332 842.4041666666667 686.7583333333332 841.3983333333333 688.75 839.5829166666667L757.5 770.8329166666667C759.3166666666667 768.8383333333334 760.3208333333332 766.2383333333333 760.3208333333332 763.54125C760.3208333333332 760.8441666666666 759.3166666666667 758.2441666666667 757.5 756.2495833333334zM906.25 125C906.25 142.2583333333335 892.2583333333333 156.25 875 156.25H125L120.7595833333333 155.9666666666668C105.50625 153.8958333333334 93.75 140.8208333333333 93.75 125C93.75 107.7416666666667 107.74125 93.75 125 93.75H875L879.2416666666667 94.0333333333333C894.4916666666667 96.1041666666667 906.25 109.1791666666667 906.25 125z" />
    <glyph glyph-name="email"
      unicode="&#x65;&#x6D;&#x61;&#x69;&#x6C;"
      horiz-adv-x="1000" d="M906.25 717.5A105.8333333333333 105.8333333333333 0 0 1 800.8333333333333 822.9166666666667H199.1666666666667A105.8333333333333 105.8333333333333 0 0 1 93.75 717.5A28.3333333333333 28.3333333333333 0 0 1 93.75 711.6666666666667A10 10 0 0 1 93.75 708.3333333333334V291.6666666666668A114.1666666666667 114.1666666666667 0 0 1 163.9583333333334 186.5A112.5 112.5 0 0 1 207.5 177.9166666666668H791.6666666666666A114.5833333333333 114.5833333333333 0 0 1 906.25 291.6666666666668V708.3333333333334A9.9583333333333 9.9583333333333 0 0 1 906.25 711.6666666666667A28.4166666666667 28.4166666666667 0 0 1 906.25 717.5zM644.1666666666666 483.3333333333334L843.75 618.75V291.6666666666668A37.9166666666667 37.9166666666667 0 0 0 843.75 285L644.1666666666666 483.3333333333334zM199.1666666666667 760.4166666666667H800.8333333333333A41.6666666666667 41.6666666666667 0 0 0 842.4999999999999 718.75A44.1666666666667 44.1666666666667 0 0 0 823.7499999999999 682.9166666666667L573.75 516.25A135 135 0 0 0 421.6666666666667 516.25L171.6666666666666 682.9166666666667A41.6666666666667 41.6666666666667 0 0 0 152.9166666666666 718.75A41.6666666666667 41.6666666666667 0 0 0 199.1666666666666 760.4166666666667zM157.5 285A37.5 37.5 0 0 0 157.5 291.6666666666668V619.1666666666667L357.5 483.75L157.5 285zM208.3333333333333 239.5833333333334A37.0833333333333 37.0833333333333 0 0 0 201.6666666666667 239.5833333333334L410 447.9166666666668A197.5 197.5 0 0 1 500.4166666666666 425.4166666666668A195.4166666666667 195.4166666666667 0 0 1 590 447.9166666666668L798.3333333333333 239.5833333333334A37.0833333333333 37.0833333333333 0 0 0 791.6666666666666 239.5833333333334H208.3333333333333z" />
    <glyph glyph-name="energy_pass"
      unicode="&#x65;&#x6E;&#x65;&#x72;&#x67;&#x79;&#x5F;&#x70;&#x61;&#x73;&#x73;"
      horiz-adv-x="1000" d="M125 864.5833333333334A31.25 31.25 0 0 1 93.75 833.3333333333334V583.3333333333334C93.75 566.0833333333334 107.75 552.0833333333334 125 552.0833333333334H634.0833333333333A31.25 31.25 0 0 1 658.9583333333333 564.4166666666667L754.0416666666666 689.4166666666667A31.25 31.25 0 0 1 754.0416666666666 727.25L658.9583333333334 852.25A31.25 31.25 0 0 1 634.0833333333334 864.5833333333333H125zM156.25 614.5833333333334V802.0833333333334H618.5833333333333L689.9166666666666 708.3333333333334L618.5833333333333 614.5833333333334H156.25zM125 447.9166666666668A31.25 31.25 0 0 1 93.75 416.6666666666668V166.6666666666668C93.75 149.4166666666666 107.75 135.4166666666668 125 135.4166666666668H808.75A31.25 31.25 0 0 1 834.3333333333334 148.7916666666668L921.4583333333334 273.7916666666668A31.25 31.25 0 0 1 921.4583333333334 309.5416666666668L834.375 434.5416666666668A31.25 31.25 0 0 1 808.7083333333334 447.9166666666668H125zM156.25 197.9166666666668V385.4166666666668H792.4166666666666L857.7499999999999 291.6666666666668L792.4166666666665 197.9166666666668H156.25z" />
    <glyph glyph-name="equals"
      unicode="&#x65;&#x71;&#x75;&#x61;&#x6C;&#x73;"
      horiz-adv-x="1000" d="M208.3333333333333 656.25A31.25 31.25 0 0 1 208.3333333333333 593.75H791.6666666666666A31.25 31.25 0 0 1 791.6666666666666 656.25H208.3333333333333zM208.3333333333333 406.25A31.25 31.25 0 0 1 208.3333333333333 343.75H791.6666666666666A31.25 31.25 0 0 1 791.6666666666666 406.25H208.3333333333333z" />
    </font>
</defs>
</svg>
